This file was generated by Ched 2.6.4.0.
#TITLE ""
#ARTIST ""
#DESIGNER ""
#DIFFICULTY 0
#PLAYLEVEL
#SONGID ""
#WAVE ""
#WAVEOFFSET 0
#JACKET ""
#REQUEST "ticks_per_beat 480"
#00002: 4
#BPM01: 140
#00008: 01
#TIL00: ""
#HISPEED 00
#MEASUREHS 00
#00115:0013000000000000
#00118:00130000
#00112:0000001300000013
#0011b:1313
#01012:13
#01017:13
#0101b:0013
#01014:00130000
#01019:00130000
#01016:0013
#01015:0000000000000013
#01018:00000013
#01010:41
#01918:00130000
#01915:13
#01912:0013
#0191b:0013
#02012:13131300
#02018:0013001300001300
#02015:0000000000130000
#0201b:0000000000000013
#02010:41
#02318:00130000
#02315:0000001300000000
#02312:1313
#0231b:13
#03416:0013000000000000
#03419:00130000
#0341b:13000013
#03414:0000001300000000
#03415:0000000000000013
#03417:0013
#03412:0000000000130000
#0341f:11
#03515:0000001300000013
#0351b:0000000000130000
#03518:00130013
#04518:0013001313000023
#0451b:00000000130000000000001300000000
#04515:00000000001300000000000000000000
#04512:00001300000000130000000000000000
#04818:00000013
#04815:00000033333333330000130000000000
#0481a:0000000000000024
#04916:00000014
#04917:00140000
#04912:0000000000000024
#05312:00001300130000000013001300000000
#05318:00000013000000000000130000000000
#05315:00000000000000130000000000001300
#0531b:00000000000013001300000000130000
#0541b:00130013
#05412:0000001300000013
#05415:00000013
#05418:0000000000000013
#05718:00000000130000130000000013000000
#05715:0013001313000013
#0571b:0000000000130000
#05818:00000013
#05812:00130000
#05815:0000000000000013
#0021b:00131300
#00215:0000001300000000
#02418:00130013
#0241b:0013
#02415:0000001300000000
#03712:00130000
#0371b:00130000
#03718:13
#03715:0000001300000000
#05015:00000000001400000000000000000000
#01112:0013000000000000
#01715:00131300
#01718:0000001300000000
#0591b:13
#05918:0000130000130000
#05912:0000000000000013
#05915:00000013
#05910:41
#00015:00000000000000000000000000000013
#00018:0000000000000013
#0211b:13
#02112:0013
#03818:0000000000130000
#03815:1300000000000013
#03812:00000013000000000000000013000000
#04315:00000013000000000000001300000000
#0431b:0023130000000000
#04312:0000001313000023
#04318:00000000000000130000130000000000
#04316:24
#0431f:21
#04310:0041
#04412:0013130000000000
#04418:00000013000000000000001300000000
#0441b:0000001313000023
#04415:00000000000000130000130000000000
#04612:0013000000130000
#0461b:00131313
#04615:00000000001300130000000000000000
#04618:0000001300000023
#06015:0013000000000000
#04012:0000130000000014
#04018:00130000
#04015:23
#0401b:23
#00912:13
#00918:13000000001300130000000000000000
#00915:0013131300000000
#0091b:0013000000000000
#00518:13
#0051b:0013
#02218:0013001300001300
#02212:0013
#02215:0000130000130013
#0221b:13
#02518:0013000000000000
#02512:0000001313000000
#02515:00130000
#0261b:1313
#02615:1300000013000013
#02618:00230000
#02612:00230000
#02912:13
#02915:00130000
#0291b:0000001300000000
#02918:0013000000000000
#03215:0000130000130000
#03218:0013000000001300
#0321b:1300000013000013
#03212:1300001313000000
#00312:13
#00315:00001300000000000033330000000000
#0031b:0000130000000013
#00318:0000001300000000
#00310:41
#00412:00130000
#00415:0013
#00418:0000001300000000
#00612:0013000000000000
#00618:00130000
#00615:0000001300000000
#00714:0000000000000013
#0121b:13
#01216:13
#01212:0013
#01219:00130000
#01214:00130000
#01217:0013
#01218:0000000000000013
#01215:00000013
#0131b:0013000000000000
#01412:13
#01417:13
#0141b:0013
#01414:00130000
#01419:00130000
#01416:0013
#01415:0000000000000013
#01418:00000013
#01512:0013000000000000
#01515:00000013
#01518:0000000000000013
#0161b:0000000000000013
#01818:13
#01815:00130000
#02718:13130000
#02715:0013001300000000
#02812:13
#02815:0013000000333300
#02818:00130000
#0281b:0000001300333300
#0301b:00130000
#03015:00130000
#03012:1313
#03018:1300000013000013
#03010:41
#03115:13130000
#03118:0013001300000000
#0331b:13
#03318:00130000
#03312:1300001300000000
#03315:0013000000000000
#03618:0013000000130000
#03615:00131313
#03612:1300000000000013
#0361b:0000001300000013
#03918:1300000000000013
#0391b:00000013000000000000000013000000
#03915:0000000000130000
#04115:14140000
#04112:0014001400000000
#05115:00000013000000001300000000002300
#05118:00000000130000130000130000000000
#05112:00000000000013000000001300000000
#0511b:0013000000000000
#05218:00000013000000001300000000002300
#05215:00000000130000130000130000000000
#0521b:00000000000013000000001300000000
#05212:0013000000000000
#05515:00000013000000001300001300000000
#05518:00000000130000130000000000000000
#05512:0000001300000023
#0551b:0013000000130000
#05618:00000013000000001300001300000000
#05615:00000000130000130000000000000000
#0561b:0000001300000023
#05612:0013000000130000
#06112:13
#06115:0000130000130000
#0611b:0000000000000013
#06118:00000013
#06218:0013000000000000
#0631b:13
#06318:0000130000130000
#06315:00000013
#06312:0000000000000013
#06415:0013000000000013
#06418:00000013
#06618:00131300
#06615:0000001300000000
#06512:0000000000000013
#04712:00000033333300000000000000000000
#0471b:00000000000000000000003333330000
#0015b:0053
#00152:0000000000000053
#0025b:0053
#02352:0063
#0245b:0053
#02458:00000063
#03555:0000001300000000
#04558:0000000063000013
#0455b:00000000000000000000006300000000
#04957:00240000
#04952:0000000000000064
#05055:00000000002400000000000000000000
#05755:0000000000000053
#05852:00230000
#01055:0000000000000063
#01152:0063000000000000
#0595b:53
#05952:0000000000000053
#05958:00630000
#0215b:63
#02152:0053
#0465b:00000053
#04658:0000000000000013
#06055:0053000000000000
#0485a:0000000000000064
#01952:0013
#0195b:0013
#05355:0000000000000053
#05452:0000006300000013
#05458:0000000000000013
#00955:00000000000000000000001300000000
#00558:63
#0055b:0023
#01755:0053
#01752:00000000000000000000001300000000
#02552:0063
#0295b:0000006300000000
#03855:6300001300000000
#03852:00000063000000000000000000000000
#0035b:0000000000000063
#00455:0053
#00452:00000000000000000000001300000000
#00754:0000000000000063
#01258:0000000000000053
#0135b:0053000000000000
#01455:0000000000000063
#01552:0063000000000000
#0165b:0000000000000063
#01858:00000013
#0265b:0063
#02655:0063
#02755:0000006300000000
#03052:0053
#03058:0053
#03158:0000005300000000
#03352:0000005300000000
#03958:5300001300000000
#0395b:00000053000000000000000000000000
#04052:0000000000000064
#04152:0064006400000000
#04155:24240000
#04352:0000000000000013
#04355:00000000000000000000006300000000
#04356:14
#04458:00000000000000000000005300000000
#0445b:0000000000000013
#05152:00000000000000000000006300000000
#05155:0000000000000013
#0525b:00000000000000000000005300000000
#05258:0000000000000013
#05555:00000000000000000000006300000000
#05552:0000000000000013
#05658:00000000000000000000005300000000
#0565b:0000000000000013
#06152:63
#0615b:0000000000000063
#06155:00530000
#06258:0063000000000000
#0635b:53
#06358:00630000
#06352:0000000000000053
#06455:0053000000000000
#06658:0063
#0665b:00000000000000000000001300000000
#06552:0000000000000053
#03455:0000000000000053
#03755:0000001300000000
#0013b0:0013
#001380:00000000000000000000002300000000
#001320:0000000000000013
#002350:0023000000000000
#0023b0:0013
#002380:00000000000000000000002300000000
#003350:00000000000000001333330000000000
#003320:00000000000000000000002300000000
#0033b0:0000000000000013
#004380:0023000000000000
#004350:0013
#004320:00000000000000000000002300000000
#005380:13
#0053b0:0053
#006380:23
#006380:0013
#0063a0:0000000000330000
#006390:00000033
#0063b0:0000000000000023
#007340:1300000033333333
#007350:00000000000000000033003300330000
#008320:00000023
#009350:00000000000000001300002300000000
#010350:0000000000000013
#011320:0033000000000000
#011350:00000023
#012380:0000000000000013
#0133b0:0033000000000000
#013380:00000023
#014350:0000000000000013
#015320:0033000000000000
#015350:0023
#0163b0:1300000033333333
#0163a0:00000000000000000033003300330000
#017380:0023000000000000
#017350:0013
#017320:00000000000000000000002300000000
#018380:00001323
#0213b0:13
#021380:0000332300000000
#021320:0013
#021350:00000023
#023320:0013
#024350:23
#0243b0:0013
#024380:00000033
#0253b0:23
#025320:0013
#025350:00000023
#0263b0:0013
#026380:00000023
#026351:0013
#026321:00000023
#027351:0000001300000000
#027321:00000023
#0283b1:0000000013333300
#028381:0000000000000023
#028350:0000000013333300
#028320:0000000000000023
#0293b0:0000001300000000
#029380:00000023
#030320:0013
#030350:00000023
#030381:0013
#0303b1:00000023
#031381:0000001300000000
#0313b1:00000023
#033321:0000001300000000
#033351:00000023
#034351:0000000000000013
#035321:0023000000000000
#038351:1300002300000000
#038321:00000033000000000000000000000000
#039381:1300002300000000
#0393b1:00000033000000000000000000000000
#0403b1:00001323
#040350:00001323
#040320:0000000000000014
#041350:54540000
#041320:0034003400000000
#042360:0000000000003434
#042350:00000000000000000000000000340034
#043360:24
#043350:00000000000000000000001300000000
#043320:0000000000000023
#044380:00000000000000000000001300000000
#0443b0:0000000000000023
#045380:0000000013000023
#0453b0:00000000000000000000003300000000
#0463b0:00000013
#046380:0000000000000023
#047320:00001333333300000000000000000000
#047350:0000002300000000
#0473b0:00000000000000000000133333330000
#047380:0000000000000023
#048350:00001333333333330000000000000000
#048320:0023
#0483a0:0000000000000014
#049370:00540000
#0493a0:0000000000240000
#049320:0000000000000014
#050350:00000000005400000000000000000000
#050320:00000024
#051320:00000000000000000000001300000000
#051350:0000000000000023
#0523b0:00000000000000000000001300000000
#052380:0000000000000023
#053350:0000000000000013
#054320:0023000000000000
#054320:0000001300000000
#054350:0000000000230000
#055350:00000000000000000000001300000000
#055320:0000000000000023
#056380:00000000000000000000001300000000
#0563b0:0000000000000023
#057350:0000000000000013
#058320:00530000
#058350:0000000000230000
#0593b0:1323
#059380:00330000
#059320:0000000000000013
#060350:0033000000000000
#060320:00000023
#061320:1323
#061350:00330000
#0613b0:0000000000000013
#062380:0033000000000000
#0623b0:00000023
#0633b0:1323
#063380:00330000
#063320:0000000000000013
#064350:0033000000000000
#064320:0023
#065320:1300000033333333
#065330:00000000000000000033003300330000
#066350:0023000000000000
#066380:0013
#0663b0:00000000000000000000002300000000
