This file was generated by Ched 2.6.4.0.
#TITLE ""
#ARTIST ""
#DESIGNER ""
#DIFFICULTY 0
#PLAYLEVEL
#SONGID ""
#WAVE ""
#WAVEOFFSET 0
#JACKET ""
#REQUEST "ticks_per_beat 480"
#00002: 4
#BPM01: 140
#00008: 01
#TIL00: ""
#HISPEED 00
#MEASUREHS 00
#00414:00120000
#0041a:00000000001200000000000000000000
#00418:00000012000000000000000000000013
#00415:0000000000000013
#00412:0012000000000000
#00416:0000001212000000
#0041c:00000000000000121200000000000000
#00915:00001300001600160000000000000000
#00912:00000016000013000000000000000000
#00918:00160000130000000000000000000000
#0091b:1313
#02316:0000130000000013
#02314:1300001300000000
#02312:0000000013000013
#0231b:0000130000131300
#02317:00000000000000001300001300000000
#0351b:0000001300000000
#03512:0000001300000000
#03516:0000140000120000
#03518:00000012
#0351a:0000000000130012
#0421b:13131300
#04212:13131300
#04218:00001300001300130000000000000000
#04215:00130013000013000000000000000000
#04512:0000000013000000000000000000000000000013000000000000000023000000
#0451b:0000000000000000130000000000000000000000000000000013000000000000
#04518:00001300001300130000000000000000
#04515:0000131313000000
#04516:0000000000000000000000000000000000000000000000000013000000000000
#04514:00000000000000000000001300000000
#04519:00000000000000000000001300000000
#04517:0000000000000023
#04712:0017171700000000
#04717:00000013001300000000170017001700
#04716:00000000000000000000001300130000
#04818:00000000130000130000000000000000
#0481a:0000000000140000
#04815:00000013000013000000000012000000
#0481b:00001300001300001300000000000000
#04812:00001300001300001300000000002400
#04819:00000012
#04817:0000000000000013
#04816:0000000000130000
#04917:0000000000130000
#04915:00000012
#04918:00140000
#04919:00000012
#04916:0000000000000013
#0491a:0000000000000024
#05317:00000000000000000000000000131300
#05312:00000000130000001300000000131300
#05315:00001300000000130000001300000000
#05318:00000013000013000000130000000000
#0531b:00000000130000000013000000000000
#05416:0013131300000000
#0541b:00000013001300000000000000001300
#05419:00000013
#05414:00000000000000000000000000130000
#05417:0000000000130000
#05412:00000000000000000000001300000000
#05716:0000130000130000
#05717:0013000000000013
#05712:0013001300000000
#0571b:00130000
#05715:00000000000000130000000000000000
#05718:0000001313000000
#05812:0000000000130000
#05814:00000013
#05817:0000000000000013
#0581b:0000130000000013
#05818:00000013
#05813:1313
#05815:0013001300000000
#05816:00130000
#0031c:1200120000000012
#00316:00000000001200000000000000001212
#00319:0012000000000000
#0031a:0000001200000000
#00310:41
#0291b:13000000000000000013000000000000
#02917:0000001300000000
#02912:00000013
#05014:00000000001400000000000000000000
#05016:00000013
#01715:00161300
#01717:0000001300000000
#0171b:0000001300000000
#01716:0013000000000000
#01718:0013
#00112:1200120000000012
#0011c:1212
#00115:0012000000000000
#0011a:0012000000000000
#00118:00000000001200000000000000001212
#00114:0000001200000000
#00116:00000000000000001200001200000000
#00015:00000000000000000000000000000012
#00019:0000000000000012
#00812:00120000
#0081c:0000001200000000
#00818:00121200
#00816:0012001212000000
#00519:0000000000000015
#0051b:13131313
#00612:0014001300000000
#00616:00130000
#00618:0000000000130000
#00717:1300000000000013
#00712:13001313
#00715:00000000000000000013000000130000
#0071b:0000000000130000
#00718:00000000000000000000001300000000
#01612:1300001314000000
#01616:00000000130000000014000014001300
#01614:0013000000140000
#01618:00000000000000000000001400000000
#0161a:00000000000000000000000000140000
#01617:0000001300000000
#06518:0000001312000012
#06516:00000000000000000012000000000000
#0651a:0000000000120000
#06514:00000000000013000000001200000000
#0651c:00000012
#06512:00000000000000000000000000120000
#06517:00130000
#0651b:13
#06519:0013000000000000
#01112:0000000013130000
#01116:00001300000000000000001400001400
#0111b:00001300000000001300000000130000
#01117:0000001300000000
#04612:00001300001300001300000013000000
#04619:0000000000130000
#04617:00000013
#04614:0000000000130000
#04615:00000000130000130000000000000000
#04618:00000013000013000000000000000000
#0461b:00001300001300001300000000002300
#04616:0000000000000023
#0551b:0000000000000000130000000000000013000000000000000013000000000000
#05517:0000000000000000000000000000000000000013000000000000000023000000
#05519:00000000000000000000001300000000
#05514:00000000000000000000001300000000
#05516:0000000000000000000000000000000000000000000000000013000000000000
#05512:0000130013130023
#05518:00000013000013000000000000000000
#05515:00001300000000130000000000000000
#0601b:00000000000000000000130000130000
#06018:00000000000000000000001300000000
#06015:0000130000000013
#06012:13001300000000000000130000130000
#06016:0013000000000000
#06014:0013
#06019:0013
#0371b:00130000
#03712:00130013
#03718:13
#03715:13
#03717:00000000000000000000001300000000
#06618:0013
#06615:0013
#06612:0013000000000000
#06613:00130000
#06614:0000001300000000
#03418:0000001200000013
#03415:0000000000000013
#03412:12
#03414:0012000000000000
#03416:00120000
#0341a:00001212
#0341c:0000000000120000
#0341f:11
#0511b:00000000130000001300001300002300
#05116:00000000000000000000001300002300
#05112:0000000000000000130000000000000013000000130000000013000000000000
#05115:00001300000000130000000000000000
#05118:00000013000013000000000000000000
#05117:0000000000000000000000000000000000000013000000000013000000000000
#01012:0013001300130013
#01017:0000000000130013
#0101b:13130013
#01016:1313
#01018:0013001300000000
#01010:41
#02712:0000000000120000
#02718:0000000000120000
#0271a:00000012
#02714:00000012
#0271c:0000000000000012
#02716:1300000000000012
#02715:0013000000000000
#02717:00130000
#0271b:0000001300000000
#0411a:0014000000000014000000001400000000000000000000000000000000000000
#04116:000000000000000000000000000000000000000000000000000000000000000000000000000000000000000000000000000000000000000000000000000000000000000000000000000000000000000000000000000000000000000000000000000000000000000000000000000000000000000000000000000000000000000000000000000000000000000000000000000000000000000000000000000000000000000000000000000000000000000000000000000000000000000000000000000000000000000000000000000000000000000000000000000000000000000000000000000000000000000000000014140000000000000000000000000000000000000000000000000000000000000000000000000000000000000000000000000000000000000000000000000000000000000000000000000000000000000000000000000000000000000000000000000000000000000000000000000000000000000000000000000000000000000000000000000000000000000000000000000000000000000000000000000000000000000000000000000000000000000000000000000000000000000000000000000000000000000000000000000000000000000000000000000000000000000000000000000000000000000000000000000000000000000000000000000000000000000000000000000000000000000000000000000000000000000000000000000000000000000000000000000000000000000000000000000000000000000000000000000000000014140000000000000000000000000000000000000000000000000000000000000000000000000000000000000000000000000000000000000000000000000000000000000000000000000000000000000000000000000000000000000000000000000000000000000000000000000000000000000000000000000000000000000000000000000000000000000000000000000000000000000000000000000000000000000000000000000000000000000000000000000000000000000000000000000000000000000000000000000000000000000000000000000000000000000000000000000000000000000000000000000000000000000000000000000000000000000000000000000000000000000000000000000000000000000000000000000000000000000000000000000000000000000000000000000000000000000000000000000000000000000000000000000000000000000000000000000000000000000000000000000000000000000000000000000000000000000000000000000000000000000000000000000000000000000000000000000000000000000000000000000000000000000000000000000000000000000000000000000000000000000000000000000000000000000000000000000000000000000000000000000000000000000000000000000000000000000000000000000000000000000000000000000000000000000000000000000000000000000000000000000000000000000000000000000000000000000000000000000000000000000000000000000000000000000000000000000000000000000000000000000000000000000000000000000000000000000000000000000000000000000000000000000000000000000000000000000000000000000000000000000000000000000000000000000000000000000000000000000000000000000000000000000000000000000000000000000000000000000000000000000000000000000000000000000000000000000000000000000000000000000000000000000000000000000000000000000000000000000000000000000000000000000000000000000000000000000000000000000000000000000000000000000000000000000000000000000000000000000000000000000000000000000000000000000000000000000000000000000000000000000000000000000000000000000000000000000000000000000000000000000000000000000000000000000000000000000000000000000000000000000000000000000000000000000000000000000000000000000000000000000000000000000000000000000000000000000000000000000000000000000000000000000000000000000000000000000000000000000000000000000000000000000000000000000000000000000000000000000000000000000000000000000000000000000000000000000000000000000000000000000000000000000000000000000000000000000000000000000000000000000000000000000000000000000000000000000000000000000000000000000000000000000000000000000000000000000000000000000000000000000000000000000000000000000000000000000000000000000000000000000000000000000000000000000000000000000000000000000000000000000000000000000000000000000000000000000000000000000000000000000000000000000000000000000000000000000000000000000000000000000000000000000000000000000000000000000000000000000000000000000000000000000000000000000000000000000000000000000000000000
#04112:0014000000000014000000001400000000000000000000000000000000000000
#0401a:0000000000000014
#04012:0000130000001324
#04017:00130000
#04016:2313
#0401b:23001313
#04014:0018001800180000
#01417:0013000013000013
#01416:1300001300130000
#01412:0013130000001300
#0141b:1300001300130000
#01512:00130000
#01516:0000001300000000
#0151b:0000000000130000
#01517:00000013
#02116:13131300
#02112:0013000000001300
#02117:0000001300001300
#0211b:0013
#02114:0000000000130000
#02119:0000000000130000
#02012:13131313
#02015:0013001300130000
#0201b:13131313
#02018:0013000000130013
#02010:41
#02517:00000000130000000000131300001300
#02516:00001300000013130000000000000000
#02512:0000130000001313
#0251b:0013000013000000
#02519:13
#03612:0000000000120013
#0361b:0000000000000013
#0361c:12
#0361a:0012000000000000
#03618:00120000
#03616:0000001200000000
#03614:00001212
#0381a:00130000000000000000000000000000
#03815:00130000
#03816:00000000000000130000001300000000
#0381b:0000000000130000
#03819:00000013
#03814:00000000000000000000000000130000
#03817:0000000000000013
#03812:00000000000000000000000000000013
#03913:00130000000000000000000000000000
#03918:00000000130000000000001300000000
#03917:00000000000000130000000000000000
#03912:0000000000130000
#03914:00000013
#0391a:00000000000000000000000000130000
#03916:0000000000000013
#04318:23000000130000130000130000000000
#04316:0000000000000000000000000000000000000000000000000013000000000000
#04314:00000000000000000000001300000000
#0431b:0000000023000000000000001300000000000000000000000013000000000000
#04319:00000000000000000000001300000000
#04312:0000000023000000000000001300000000000013000000000000000023000000
#04315:00000013000000001300000000000000
#04317:0000000000000023
#0431f:21
#04310:0041
#04415:00000000130000130000130000000000
#04417:0000000000000000000000000000000000000000000000000013000000000000
#04419:00000000000000000000001300000000
#04412:0000000013000000000000001300000000000000000000000013000000000000
#04414:00000000000000000000001300000000
#0441b:0000000013000000000000001300000000000013000000000000000023000000
#04418:00000013000000001300000000000000
#04416:0000000000000023
#0591b:1300000013000013
#05916:0000000000001313
#05917:0013001300130000
#05912:0013001300130000
#05915:13130000
#05910:41
#0021c:0012120000000000
#00216:00000000001200000000000000000000
#00214:00000000000000120000000000000000
#0021a:0000001200000000
#00212:0012
#00218:00000000000000001200001200000000
#00219:00000000000000000000000000000012
#00215:0000000000000012
#01816:13
#01814:00130013
#0181b:13
#01815:0018000000000000
#01819:00130013
#01813:0000001800180000
#01817:0013
#01812:0013
#01918:12141600
#01914:14141400
#01916:0014001400000000
#02812:0000000013000013
#02818:0000000013000013
#02819:0000120000120000
#02815:0012001300001200
#02817:00000012000000000000001200000000
#0281b:1300001300000000
#02816:13
#02217:13131313
#0221b:0013001300130013
#02214:13131313
#02212:0013000000130000
#02216:0000001300000013
#02616:13130000
#02612:0000001300130013
#02615:0013
#0261b:1300230000001313
#02619:0000001300130000
#02618:0013
#0131b:0000000013130000
#01316:00000000000013000000001400001400
#01312:00001300000000001300000000130000
#01317:0013000000000000
#0121b:0013001300130013
#01216:0000000000130013
#01212:13130013
#01217:1313
#01215:0013001300000000
#0311c:0000000000120000
#03116:0000130000120000
#03114:00000012
#0311a:00000012
#03112:0000001300000012
#03118:0013000000000012
#03117:13
#0321b:0000000013000013
#03215:0000120013120013
#03212:1300001300000000
#03217:13000012000000000000001200000000
#03218:0000001300000000
#03219:0012000000001200
#05212:00000000130000001300001300002300
#05217:00000000000000000000001300002300
#0521b:0000000000000000130000000000000013000000130000000013000000000000
#05218:00001300000000130000000000000000
#05215:00000013000013000000000000000000
#05216:0000000000000000000000000000000000000013000000000013000000000000
#05612:0000000000000000130000000000000013000000000000000013000000000000
#05616:0000000000000000000000000000000000000013000000000000000023000000
#05614:00000000000000000000001300000000
#05619:00000000000000000000001300000000
#05617:0000000000000000000000000000000000000000000000000013000000000000
#0561b:0000130013130023
#05615:00000013000013000000000000000000
#05618:00001300000000130000000000000000
#06212:00000000000000000000130000130000
#06215:00000000000000000000001300000000
#06218:0000130000000013
#0621b:13001300000000000000130000130000
#06217:0013000000000000
#06219:0013
#06214:0013
#06112:1300000013000013
#06117:0000000000001313
#06116:0013001300130000
#0611b:0013001300130000
#06118:13130000
#06316:0013000013000013
#06317:1300001300130000
#0631b:0013130000001300
#06312:1300001300130000
#0641b:00130000
#06417:0000001300000000
#06412:0000000000130000
#06416:00000013
#02416:13131313
#02412:0013001300130013
#02419:13131313
#0241b:0013000000130000
#02417:0000001300000013
#03012:1300130000001313
#0301b:0000001300130013
#03017:13130000
#03018:0013
#03014:0000001300130000
#03015:0013
#03010:41
#03312:13000000000000000013000000000000
#03316:0000001300000000
#0331b:00000013
#0035c:0000000000000052
#00955:00000000000000000000001600000000
#0095b:0053
#04958:00240000
#0495a:0000000000000054
#05054:00000000002400000000000000000000
#05757:0000000000000053
#0585b:00230000
#05852:0000000000130000
#05858:00000013
#05857:0000000000000013
#00559:0000000000000065
#00757:5300000000000053
#04255:00000000000000000000001600000000
#0425b:0053
#01656:0000000000000053
#04652:00000063
#04656:0000000000000013
#04657:00000053
#0465b:0000000000000013
#0555b:0000000000000000000000000000000063000000000000000023000000000000
#05557:0000000000000000000000000000000000000023000000000000000033000000
#05559:00000000000000000000006300000000
#05552:0000000000000033
#05556:0000000000000000000000000000000000000000000000000023000000000000
#05554:00000000000000000000006300000000
#04852:0000000000000054
#00856:0052
#00858:0052
#0085c:00000000000000000000001200000000
#00852:00000000000000000000001200000000
#02957:0000006300000000
#0295b:00000000000000000023000000000000
#03752:00530053
#0375b:00530000
#03755:2300001300000000
#03758:2300001300000000
#03757:00000000000000000000005300000000
#06658:0053
#06655:0053
#06652:00000000000000000000001200000000
#0665c:00000000000000000000001200000000
#03458:0000000000000023
#03455:0000000000000023
#0515b:00000000000000006300005300004300
#05156:00000000000000000000005300004300
#05152:0000000000000000000000000000000000000000000000000023000000000000
#05157:0000000000000000000000000000000000000023000000000023000000000000
#0545b:0000000000000013
#05456:0000005300000000
#01052:0023000000230053
#0105b:63630000
#01058:0023002300000000
#01056:5363
#01156:0053000000000000
#05357:0000000000000053
#0415a:0024000000000024000000002400000000000000000000000000000000000000
#04156:000000000000000000000000000000000000000000000000000000000000000000000000000000000000000000000000000000000000000000000000000000000000000000000000000000000000000000000000000000000000000000000000000000000000000000000000000000000000000000000000000000000000000000000000000000000000000000000000000000000000000000000000000000000000000000000000000000000000000000000000000000000000000000000000000000000000000000000000000000000000000000000000000000000000000000000000000000000000000000000064540000000000000000000000000000000000000000000000000000000000000000000000000000000000000000000000000000000000000000000000000000000000000000000000000000000000000000000000000000000000000000000000000000000000000000000000000000000000000000000000000000000000000000000000000000000000000000000000000000000000000000000000000000000000000000000000000000000000000000000000000000000000000000000000000000000000000000000000000000000000000000000000000000000000000000000000000000000000000000000000000000000000000000000000000000000000000000000000000000000000000000000000000000000000000000000000000000000000000000000000000000000000000000000000000000000000000000000000000000000064540000000000000000000000000000000000000000000000000000000000000000000000000000000000000000000000000000000000000000000000000000000000000000000000000000000000000000000000000000000000000000000000000000000000000000000000000000000000000000000000000000000000000000000000000000000000000000000000000000000000000000000000000000000000000000000000000000000000000000000000000000000000000000000000000000000000000000000000000000000000000000000000000000000000000000000000000000000000000000000000000000000000000000000000000000000000000000000000000000000000000000000000000000000000000000000000000000000000000000000000000000000000000000000000000000000000000000000000000000000000000000000000000000000000000000000000000000000000000000000000000000000000000000000000000000000000000000000000000000000000000000000000000000000000000000000000000000000000000000000000000000000000000000000000000000000000000000000000000000000000000000000000000000000000000000000000000000000000000000000000000000000000000000000000000000000000000000000000000000000000000000000000000000000000000000000000000000000000000000000000000000000000000000000000000000000000000000000000000000000000000000000000000000000000000000000000000000000000000000000000000000000000000000000000000000000000000000000000000000000000000000000000000000000000000000000000000000000000000000000000000000000000000000000000000000000000000000000000000000000000000000000000000000000000000000000000000000000000000000000000000000000000000000000000000000000000000000000000000000000000000000000000000000000000000000000000000000000000000000000000000000000000000000000000000000000000000000000000000000000000000000000000000000000000000000000000000000000000000000000000000000000000000000000000000000000000000000000000000000000000000000000000000000000000000000000000000000000000000000000000000000000000000000000000000000000000000000000000000000000000000000000000000000000000000000000000000000000000000000000000000000000000000000000000000000000000000000000000000000000000000000000000000000000000000000000000000000000000000000000000000000000000000000000000000000000000000000000000000000000000000000000000000000000000000000000000000000000000000000000000000000000000000000000000000000000000000000000000000000000000000000000000000000000000000000000000000000000000000000000000000000000000000000000000000000000000000000000000000000000000000000000000000000000000000000000000000000000000000000000000000000000000000000000000000000000000000000000000000000000000000000000000000000000000000000000000000000000000000000000000000000000000000000000000000000000000000000000000000000000000000000000000000000000000000000000000000000000000000000000000000000000000000000000000000000000000000000000000000000000000
#04152:0024000000000024000000002400000000000000000000000000000000000000
#0405a:0000000000000054
#04052:0000000000000054
#01752:00000000000000000000001200000000
#0175c:00000000000000000000001200000000
#01758:0053
#01755:0053
#02156:13530000
#0255b:0013
#02552:00000013
#0355b:0000001300000000
#03552:0000001300000000
#0365b:0000000000000053
#04352:0000000000000000000000000000000000000023000000000000000033000000
#04357:0000000000000033
#04356:0000000000000000000000000000000000000000000000000023000000000000
#04354:00000000000000000000006300000000
#0435b:0000000000000000000000000000000000000000000000000023000000000000
#04359:00000000000000000000006300000000
#04355:0063
#04358:13
#04457:0000000000000000000000000000000000000000000000000023000000000000
#04459:00000000000000000000005300000000
#04452:0000000000000000000000000000000000000000000000000023000000000000
#04454:00000000000000000000005300000000
#0445b:0000000000000000000000000000000000000023000000000000000043000000
#04458:0053
#04456:0000000000000043
#0595b:5300000053000063
#05955:63630000
#05952:0023002300000000
#05957:0023000000230000
#06056:0063000000000000
#06052:0063000000000000
#06055:00230000
#0205b:63630000
#02058:0023000000000000
#02052:00005353
#02055:0000000000230000
#00452:00000000000000000000001200000000
#00458:00000000000000000000001200000000
#00456:0062
#0045c:0062
#0015c:0052
#00152:0000000000000052
#00252:0062
#0145b:5300000000230000
#01457:0023000053000000
#01452:00530000
#01456:0000002300000000
#0185b:13
#01859:00130000
#01852:0013
#01854:00000013
#02852:0013
#02858:0013
#0285b:13
#02257:53535353
#0225b:0023002300230023
#02656:00530000
#02655:0053
#02652:0000002300230000
#0265b:0000000000000053
#0125b:0023000000230063
#01257:6353
#01252:53530000
#01255:0023002300000000
#01357:0063000000000000
#01958:1216
#01954:00140000
#0325b:0013
#03255:0013
#03252:13
#05252:00000000000000005300006300003300
#05257:00000000000000000000006300003300
#05256:0000000000000000000000000000000000000023000000000023000000000000
#0525b:0000000000000000000000000000000000000000000000000023000000000000
#05652:0000000000000000000000000000000053000000000000000023000000000000
#05656:0000000000000000000000000000000000000023000000000000000043000000
#05654:00000000000000000000005300000000
#05659:00000000000000000000005300000000
#05657:0000000000000000000000000000000000000000000000000023000000000000
#0565b:0000000000000043
#06152:6300000063000053
#06156:0023000000230000
#06158:53530000
#0615b:0023002300000000
#06257:0053000000000000
#0625b:0053000000000000
#06258:00230000
#06352:6300000000230000
#06356:0023000063000000
#0635b:00630000
#06357:0000002300000000
#02456:63636363
#02452:0023002300230023
#02755:0053000000000000
#02756:23
#02757:00230000
#02752:0000003300000000
#03052:0000000000000063
#03057:00630000
#0305b:0000002300230000
#03058:0063
#03157:23
#03158:0063000000000000
#03156:00230000
#0315b:0000004300000000
#04556:0000000000000000000000000000000000000000000000000023000000000000
#04554:00000000000000000000006300000000
#0455b:0000000000000000000000000000000000000000000000000023000000000000
#04559:00000000000000000000006300000000
#04552:0000000000000000000000000000000000000023000000000000000033000000
#04555:0063
#04557:0000000000000033
#03356:0000005300000000
#03352:00000000000000000023000000000000
#06558:0000000000000052
#0013c0:0012
#001380:00000000000000000000002200000000
#001320:0000000000000012
#002360:0022000000000000
#002320:0012
#002360:00000000000000000000002200000000
#003320:1222000000000000
#0033a0:00000000000000001200002200000000
#003380:00000000000000000032320000000000
#003341:00000000000000001200002200000000
#003321:00000000000000000032320000000000
#0033c1:0000000000000012
#004381:0022000000000000
#004361:0012
#004321:00000000000000000000002200000000
#0043c0:0012
#004380:00000000000000000000002200000000
#005320:13530000000000000000000000532300
#005330:0053000053000000000000000000000000000000000000005300005300000000
#005340:0000005300005300530000000000000000000000530053000053000000000000
#005350:0000000000530053000053000000000000005300005300530000000000000000
#005360:0000000000000000005300005300530053000053000000000000000000000000
#005370:0000000000000000000000530053005300530000000000000000000000000000
#005391:0000000000000015
#006361:0034000000000000
#0063a1:00330000
#006371:0000003300000000
#0063b1:0023
#006360:0013
#006330:0000000000330000
#006350:00000033
#006320:0000000000000023
#0063a1:00000013
#006371:0000000000000023
#007371:13
#0073b1:0023
#007371:0000000000000013
#0083b1:0023000000000000
#008381:0012
#0083c1:00000000000000000000002200000000
#008360:0012
#008320:00000000000000000000002200000000
#0093b0:0013
#009350:00000000000000000000002600000000
#0103b0:13532300
#010380:0053005300000000
#010361:13230000
#010321:0053000000000000
#010361:00001323
#010321:0000000000530000
#010321:0000000000000013
#011361:0053000000000000
#011321:0000002300000000
#012321:13532300
#012351:0053005300000000
#012370:13230000
#0123b0:0053000000000000
#012370:00001323
#0123b0:0000000000530000
#0123b0:0000000000000013
#013370:0053000000000000
#0133b0:0000002300000000
#0143b0:13230000
#014370:0053000000000000
#014321:00132300
#014361:0000005300000000
#014370:00001323
#0143b0:0000000000530000
#014320:0000000000000013
#015360:0023000000000000
#0153b1:0013000000000000
#015371:00330000
#0153a1:0000003300000000
#015361:0023
#015320:0013
#015360:0000000000330000
#015330:00000033
#015370:0000000000000023
#0153b1:0000000000000013
#0163b1:00230000
#016361:0000000000000013
#017321:0023000000000000
#017381:0013
#0173c1:00000000000000000000002200000000
#017350:0013
#017320:00000000000000000000002200000000
#0203b0:13530000
#020380:0053002300000000
#020320:00001353
#020350:0000000000530023
#0213b0:13230000
#021361:00130000
#021321:0000002300000000
#022371:13333333
#0223b1:0053005300530053
#023371:23
#024361:13333333
#024321:0053005300530053
#025361:23
#026361:00130023
#026321:0000005300530000
#026351:0033
#0263b1:0000000000000013
#027361:53
#027381:0023000000000000
#027350:0013000000000000
#027370:00530000
#027320:0000002300000000
#029360:13
#029320:0023000000000000
#029371:0013000000000000
#0293b1:00230000
#029360:00130000
#029320:0000002300000000
#029371:0000001300002300
#0293b1:00000000000000000053000000000000
#030371:00130023
#0303b1:0000005300530000
#030381:0033
#030321:0000000000000013
#031371:53
#031351:0023000000000000
#031380:0013000000000000
#031360:00530000
#0313b0:0000002300000000
#033370:13
#0333b0:0023000000000000
#033361:0013000000000000
#033321:00230000
#033370:00130000
#0333b0:0000002300000000
#033361:0000001300002300
#033321:00000000000000000053000000000000
#034381:1323000000000000
#034351:00001323
#034381:0000000000000013
#0353c1:0022000000000000
#034350:0000000000000013
#035320:0022000000000000
#036350:1323000000000000
#036380:00001323
#0363b0:0000000000000013
#037380:53
#0373b0:0023000000000000
#037351:13
#037321:0023000000000000
#037321:00130000
#037351:0000002300000000
#0373b0:00130000
#037380:0000002300000000
#037370:00000000000000000000001300000000
#0373b0:00000000000000000000000000532300
#037321:00000013
#037361:0000000000000023
#038371:13230000000000000000000000000000
#038381:00000013230000000000000000000000
#038331:00000000000013230000000000000000
#039361:13230000000000000000000000000000
#039351:00000013230000000000000000000000
#0393a1:00000000000013230000000000000000
#040321:0000000000000014
#0413a1:0054000000000000000000003400000000000000000000000000000000000000
#041361:000000000000000000000000000000000000000000000000000000000000000000000000000000000000000000000000000000000000000000000000000000000000000000000000000000000000000000000000000000000000000000000000000000000000000000000000000000000000000000000000000000000000000000000000000000000000000000000000000000000000000000000000000000000000000000000000000000000000000000000000000000000000000000000000000000000000000000000000000000000000000000000000000000000000000000000000000000000000000000000054000000000000000000000000000000000000000000000000000000000000000000000000000000000000000000000000000000000000000000000000000000000000000000000000000000000000000000000000000000000000000000000000000000000000000000000000000000000000000000000000000000000000000000000000000000000000000000000000000000000000000000000000000000000000000000000000000000000000000000000000000000000000000000000000000000000000000000000000000000000000000000000000000000000000000000000000000000000000000000000000000000000000000000000000000000000000000000000000000000000000000000000000000000000000000000000000000000000000000000000000000000000000000000000000000000000000000000000000000000000054000000000000000000000000000000000000000000000000000000000000000000000000000000000000000000000000000000000000000000000000000000000000000000000000000000000000000000000000000000000000000000000000000000000000000000000000000000000000000000000000000000000000000000000000000000000000000000000000000000000000000000000000000000000000000000000000000000000000000000000000000000000000000000000000000000000000000000000000000000000000000000000000000000000000000000000000000000000000000000000000000000000000000000000000000000000000000000000000000000000000000000000000000000000000000000000000000000000000000000000000000000000000000000000000000000000000000000000000000000000000000000000000000000000000000000000000000000000000000000000000000000000000000000000000000000000000000000000000000000000000000000000000000000000000000000000000000000000000000000000000000000000000000000000000000000000000000000000000000000000000000000000000000000000000000000000000000000000000000000000000000000000000000000000000000000000000000000000000000000000000000000000000000000000000000000000000000000000000000000000000000000000000000000000000000000000000000000000000000000000000000000000000000000000000000000000000000000000000000000000000000000000000000000000000000000000000000000000000000000000000000000000000000000000000000000000000000000000000000000000000000000000000000000000000000000000000000000000000000000000000000000000000000000000000000000000000000000000000000000000000000000000000000000000000000000000000000000000000000000000000000000000000000000000000000000000000000000000000000000000000000000000000000000000000000000000000000000000000000000000000000000000000000000000000000000000000000000000000000000000000000000000000000000000000000000000000000000000000000000000000000000000000000000000000000000000000000000000000000000000000000000000000000000000000000000000000000000000000000000000000000000000000000000000000000000000000000000000000000000000000000000000000000000000000000000000000000000000000000000000000000000000000000000000000000000000000000000000000000000000000000000000000000000000000000000000000000000000000000000000000000000000000000000000000000000000000000000000000000000000000000000000000000000000000000000000000000000000000000000000000000000000000000000000000000000000000000000000000000000000000000000000000000000000000000000000000000000000000000000000000000000000000000000000000000000000000000000000000000000000000000000000000000000000000000000000000000000000000000000000000000000000000000000000000000000000000000000000000000000000000000000000000000000000000000000000000000000000000000000000000000000000000000000000000000000000000000000000000000000000000000000000000000000000000000000000000000000000000000000000000
#041321:0000000000000054000000000000000000000000000000000000000000000000
#041381:0000000000000023
#0403a0:0000000000000014
#041320:0054000000000000000000003400000000000000000000000000000000000000
#041360:00000000000000003400000000000000000000540000000000000000000000000000000000000000000000000000000000000000000000000000000000000000
#0413a0:0000000000000054000000000000000000000000000000000000000000000000
#041350:0000000000000023
#0423b0:0013
#042350:00000000000000000000002600000000
#042320:00000000000000000000000013230000
#0423b1:00000000000000000000000000132300
#042350:00000000000000000000000000001323
#042381:00000000000000000000000000000013
#043381:23
#043351:0013
#043321:0000000000000000000000000000000000000053000000000000000023000000
#043341:00000000000000000000005300000000
#043361:0000000000000000000000000000000000000000000000000053000000000000
#043390:00000000000000000000001300000000
#0433b0:0000000000000000000000000000000000000000000000000053000000000000
#043370:0000000000000023
#044380:0013
#0443b0:0000000000000000000000000000000000000053000000000000000023000000
#044390:00000000000000000000005300000000
#044370:0000000000000000000000000000000000000000000000000053000000000000
#044341:00000000000000000000001300000000
#044321:0000000000000000000000000000000000000000000000000053000000000000
#044361:0000000000000023
#045351:0013
#045321:0000000000000000000000000000000000000053000000000000000023000000
#045341:00000000000000000000005300000000
#045361:0000000000000000000000000000000000000000000000000053000000000000
#045390:00000000000000000000001300000000
#0453b0:0000000000000000000000000000000000000000000000000053000000000000
#045370:0000000000000023
#046320:00000013
#046360:0000000000000023
#046371:00000013
#0463b1:0000000000000023
#048321:0000000000000014
#049381:00540000
#049321:0000000000240000
#0493a1:0000000000000014
#050341:00000000005400000000000000000000
#0503a1:00000024
#0513b1:00000000000000001300005300002300
#051371:0000000000000000000000000000000000000053000000000053000000000000
#051360:00000000000000000000001300002300
#051320:0000000000000000000000000000000000000000000000000053000000000000
#052320:00000000000000001300005300002300
#052360:0000000000000000000000000000000000000053000000000053000000000000
#052371:00000000000000000000001300002300
#0523b1:0000000000000000000000000000000000000000000000000053000000000000
#053371:0000000000000013
#0543b1:0023000000000000
#054361:0000001300000000
#054321:0000000000230000
#0553b1:0000000000000000000000000000000013000000000000000053000000000000
#055371:0000000000000000000000000000000000000053000000000000000023000000
#055391:00000000000000000000005300000000
#055340:00000000000000000000001300000000
#055360:0000000000000000000000000000000000000000000000000053000000000000
#055320:0000000000000023
#056320:0000000000000000000000000000000013000000000000000053000000000000
#056360:0000000000000000000000000000000000000053000000000000000023000000
#056340:00000000000000000000005300000000
#056391:00000000000000000000001300000000
#056371:0000000000000000000000000000000000000000000000000053000000000000
#0563b1:0000000000000023
#0573b1:0000000000130000
#057381:00000023
#057350:00000013
#057320:0000000000000023
#057371:0000000000000013
#0583b1:00530000
#058371:0000000000230000
#059351:13532300
#059321:0053005300000000
#0593b0:13230000
#059370:0053000000000000
#0593b0:00001323
#059370:0000000000530000
#0593b0:0000000000000013
#060360:0053000000000000
#0603b0:0000002300000000
#060321:0013002300000000
#060351:00530000
#061381:13532300
#0613b1:0053005300000000
#061320:13230000
#061360:0053000000000000
#061320:00001323
#061360:0000000000530000
#061320:0000000000000013
#062370:0053000000000000
#062320:0000002300000000
#0623b1:0013002300000000
#062381:00530000
#063321:13230000
#063361:0053000000000000
#0633b0:00132300
#063370:0000005300000000
#063361:00001323
#063321:0000000000530000
#0633b1:0000000000000013
#064371:0023000000000000
#064320:0013000000000000
#064360:00330000
#064330:0000003300000000
#064370:0023
#0643b1:0013
#064371:0000000000330000
#0643a1:00000033
#064361:0000000000000023
#064320:0000000000000013
#065320:00230000
#065380:0000000000000012
#0663c0:0000002200000000
#066380:0013
#0663c0:00000000000000000000002200000000
#066351:0013
#066321:00000000000000000000002200000000
