This file was generated by Ched 2.6.4.0.
#TITLE ""
#ARTIST ""
#DESIGNER ""
#DIFFICULTY 0
#PLAYLEVEL
#SONGID ""
#WAVE ""
#WAVEOFFSET 0
#JACKET ""
#REQUEST "ticks_per_beat 480"
#00002: 4
#BPM01: 140
#00008: 01
#TIL00: ""
#HISPEED 00
#MEASUREHS 00
#00118:1414
#00214:1414
#0031a:1414
#00310:41
#00412:1414
#00912:00160000
#00918:1616
#0181a:1414
#01814:00140014
#0191a:14
#01912:0014
#01916:00140000
#02018:1414
#02014:00140014
#02010:41
#02212:1414
#02218:00140014
#02312:14
#0231a:0014
#02316:00140000
#02412:1414
#0241a:00140014
#02514:14141400
#02518:0014001400000000
#0281a:00001414
#02812:14140000
#02818:0014000000000000
#02814:0000000000140000
#0341a:14001414
#03414:0000140000140000
#0341f:11
#03612:14001414
#03618:0000140000140000
#04712:0014001400000000
#04718:00140000
#04714:00000014
#0471a:0000000000140014
#04918:0000000000140024
#04914:00000014
#05714:00141400
#05718:0000000000140000
#05712:00000014
#0571a:0014001400000000
#05814:0000000000140014
#05818:00000014
#00518:14141400
#00614:14141400
#0071a:14141400
#00812:14141400
#0401a:1414
#04014:00140014
#04013:0000000000000034
#02912:14
#02914:00140000
#02918:0014000000000000
#0291a:0000001400000000
#05918:00140014
#05914:0014
#05919:0000000000000034
#05910:41
#03012:14
#03015:00000000000000003400001434003400
#03014:00340000
#03010:41
#03812:14000034000034000000000034003400
#03815:0000000000140000
#04218:00140000
#04214:0014
#04518:00140000
#04512:0014000000000000
#04513:00000000000000000000003400000000
#04414:00140000
#04418:0014000000000000
#04419:00000000000000000000003400000000
#04318:26140000
#04314:0014000000000000
#0431f:21
#04313:00000000000000000000003400000000
#04310:0041
#05412:00140000
#05418:0014000000343400
#0531a:00140000
#05312:0014
#05314:0014000000000000
#05313:00000000000000000000003400000000
#05212:00140000
#05218:0014000014000000
#05219:00000000000000000000003400000000
#0511a:00140000
#05114:0014000014000000
#05113:00000000000000000000003400000000
#05612:00140000
#0561a:0014000014000000
#05619:00000000000000000000003400000000
#0551a:00140000
#05512:0014000014000000
#05513:00000000000000000000003400000000
#01018:1414
#01014:00140000
#0101a:0000000000003434
#01010:41
#03212:00001414
#0321a:14140000
#03214:0014000000000000
#03218:0000000000140000
#0331a:14
#03318:00140000
#03314:0014000000000000
#03312:0000001400000000
#01214:1414
#01218:00140000
#01212:0000000000003434
#0141a:1400000000003434
#01412:00140000
#01418:0014
#01514:00000014
#0151a:0034000000000000
#01513:0000000000000034
#06316:00140000
#0631a:14000014
#06312:0014
#06319:0000000000000034
#06112:14
#06114:00000014
#0611a:0014
#06116:00140000
#06113:0000000000000034
#06414:0000000000001434
#06418:0034000000000000
#06618:1416
#06614:00140000
#06612:00000000000000000000001600000000
#02119:14
#02113:14
#04612:00141400
#04618:0014001400000000
#0461a:0000000000140014
#04614:00000014
#0481a:00000014
#04818:00141400
#04812:0014001400000024
#04814:0000000000140000
#0261a:14
#02617:00000000000000003400001434003400
#02618:00340000
#01718:00160000
#01712:1616
#03114:0034000000000000
#03912:34000034000034000000000000000000
#04112:0034003400000000
#0111a:0034000000000000
#01312:0034000000000000
#06212:0034000000000000
#0601a:0034000000000000
#03718:34
#03719:00340000
#03513:00340000
#03514:0034000000000000
#02718:0034000000000000
#00958:0016
#05854:0000000000000014
#03052:54
#03055:00000000000000000000002400000000
#04054:00000064
#03852:54
#03855:0000000000640000
#04254:0014
#05154:0064
#05352:0054
#05258:0054
#05552:0054
#0565a:0064
#01058:0054
#01254:0064
#01458:0054
#01554:00000064
#0635a:00000064
#06154:00000064
#05958:00000054
#06454:00000064
#0265a:64
#02657:00000000000000000000002400000000
#06652:00000000000000000000001600000000
#01752:0016
#010380:0014
#0103a0:0000000000003434
#0113a0:0034000000002400
#012340:0014
#012320:0000000000003434
#013320:0034000000002400
#014380:0014
#0143a0:0000000000003434
#0153a0:0034000024000000
#015340:00000014
#015330:0000000000000034
#016320:0024
#0263a0:14
#026380:00340000
#026370:00000000000000003400005434003400
#027380:0034000000000000
#0273a0:0000002400000000
#030320:14
#030340:00340000
#030350:00000000000000003400005434003400
#031340:0034000000000000
#031320:0000002400000000
#034340:0000000000000014
#035340:0034000000000000
#035330:00340000
#035320:0000002400000000
#036380:0000000000000014
#037380:34
#037390:00340000
#0373a0:0000002400000000
#038320:14000034000034000000000034003400
#038350:0000000000340000
#039320:34000034000034000000240000000000
#040340:00000014
#040330:0000000000000034
#041320:0034003400000000
#042320:24
#043340:0014
#043330:00000000000000000000003400000000
#043320:0000000000000024
#044380:0014
#044390:00000000000000000000003400000000
#0443a0:0000000000000024
#045320:0014
#045330:00000000000000000000003400000000
#045340:0000000000000024
#048320:0000000000000014
#049340:0024
#049380:0000000000000014
#0503a0:00000024
#051340:0014
#051330:00000000000000000000003400000000
#051320:0000000000000024
#052380:0014
#052390:00000000000000000000003400000000
#0523a0:0000000000000024
#053320:0014
#053330:00000000000000000000003400000000
#053340:0000000000000024
#0543a0:0000001400000000
#054380:0000000000343424
#055320:0014
#055330:00000000000000000000003400000000
#055340:0000000000000024
#0563a0:0014
#056390:00000000000000000000003400000000
#056380:0000000000000024
#0573a0:0000000000000014
#058380:0024
#059380:00000014
#059390:0000000000000034
#0603a0:0034000000002400
#061340:00000014
#061330:0000000000000034
#062320:0034000000002400
#0633a0:00000014
#063390:0000000000000034
#064380:0034000024000000
#064340:0000000000001434
#065320:00000024
