This file was generated by Ched 2.6.2.0.
#TITLE ""
#ARTIST ""
#DESIGNER ""
#DIFFICULTY 0
#PLAYLEVEL
#SONGID ""
#WAVE ""
#WAVEOFFSET 0
#JACKET ""
#REQUEST "ticks_per_beat 480"
#00002: 4
#BPM01: 139
#00008: 01
#TIL00: ""
#HISPEED 00
#MEASUREHS 00
#00219:14
#00313:14
#0101a:14
#01010:41
#01214:14
#01314:14
#01418:14
#01518:14
#01612:14
#03012:16
#03018:0016
#03112:16
#03118:0016
#03110:0041
#04519:0014
#04613:14
#04619:0014
#05319:0014
#05413:0014
#05519:0014
#05613:14
#05619:0014
#0611a:0014
#06113:14
#06318:0014
#00419:14
#00513:14
#00619:14
#00813:14
#00719:14
#00913:14
#0111a:14
#01712:14
#03218:16
#03212:0016
#03312:1626
#03418:16
#03412:0016
#03518:16
#03512:0016
#03612:16
#03618:0016
#03718:1626
#03812:16
#03818:0016
#03912:16
#04218:16
#04212:0016
#04318:16
#04713:14
#04913:0014
#04910:41
#05019:14
#05013:0014
#05119:14
#05713:14
#05719:0014
#05813:0014
#05919:0014
#06013:14
#06019:0014
#06010:41
#06214:0014
#06412:0014
#0651a:0014
#06718:0014
#06614:0014
#06812:0014
#06919:14
#0221f:11
#02918:0026
#0291f:0021
#04112:0026
#04110:0041
#01810:41
#018390:14
#019390:24
#020330:14
#021330:24
#022390:14
#023390:24
#024330:14
#025330:24
#026390:14
#028390:24
#039380:0016
#040380:26
#040320:0016
#041320:26
#043320:0016
#044320:26
#044380:0016
#045380:26
#047390:0014
#049390:24
#051330:0014
#053330:24
