This file was generated by Ched 2.6.2.0.
#TITLE ""
#ARTIST ""
#DESIGNER ""
#DIFFICULTY 0
#PLAYLEVEL
#SONGID ""
#WAVE ""
#WAVEOFFSET 0
#JACKET ""
#REQUEST "ticks_per_beat 480"
#00002: 4
#BPM01: 139
#00008: 01
#TIL00: ""
#HISPEED 00
#MEASUREHS 00
#01919:1300000000130000
#01916:13
#0191b:0013000000000000
#01914:0013000013000000
#01917:0013
#01912:0000000000130000
#02318:0013
#02315:0013
#0231c:0000001200000012
#02312:0000001200000012
#04516:0013
#04512:12000012
#04514:0000000000120012
#05419:00000012
#0541b:0000000000000012
#05414:00000012
#05416:0000000000000012
#05415:12
#0541a:12
#05412:0000000000120000
#05417:0000001200120000
#05418:0012000000000000
#05413:0012000000000000
#0541c:0000001200000000
#06817:0000130000000013
#0681c:0000000000120000
#06818:00000012
#0681b:13
#06816:1300000000120000
#06812:00130012
#06912:13
#0461b:0000000000000013
#04617:0000000000120012
#04616:13
#04612:0000120000120000
#04614:0012001200000000
#04917:00120000001200001300000000000000
#04912:1212000000000000
#0491c:0000121200001200
#0491a:0000000000120012
#04910:41
#03019:0000000000120012
#0301c:0000001200001200
#03016:1300001300000000
#0301b:13
#03012:00230000
#03017:00230000
#0021a:0000001200000012
#00212:0012
#00217:0012
#00216:12
#0021b:12
#00312:12
#00317:12
#0031c:0000001200000000
#00319:0012
#00316:0000000000120000
#00313:00000012
#0031b:0000000000120000
#00318:00000012
#00315:0000000000000012
#00412:12
#00414:0000001200000012
#0041c:1212
#00417:0012
#0051c:12
#00517:12
#00512:0000001200000000
#00515:0012
#00518:0000000000120000
#0051b:00000012
#00513:0000000000120000
#00516:00000012
#00519:0000000000000012
#0081c:0000121212001200
#00816:0033330000001200
#00812:0000000000000012
#00818:0000000000000012
#00819:12
#0081b:0012000000000000
#00815:33
#00919:0000000000121212
#00915:0000000000121212
#01012:0000001200000000
#01019:0012000000001200
#01015:0000120000120000
#0101b:12
#01013:12
#0101c:0000000012000012
#01010:41
#01219:0012001200001200
#0121c:00120000
#01215:0000120000120012
#01212:12000012
#01218:12
#01213:0012
#0121b:0012
#01317:0000000000120000
#01312:0000120000121200
#01318:00000012
#0131a:0000000000000012
#01314:0000000000000012
#01315:0012001200000000
#0131c:12
#01316:12
#0131b:0012
#01313:0012
#01319:00120000
#01612:13000012
#01618:0013000000001200
#0161b:0000001300000000
#01615:0013
#01616:0000000000000012
#0161c:0000000000000012
#01712:0012000000130000
#01717:0012000000130000
#01714:00120000
#01716:0000001200001300
#01719:0012
#0171b:0000001200001300
#0211c:1212
#02119:0012001200000000
#02117:00120000
#02112:00130000
#02116:13
#02512:12
#02517:1300120000121300
#02516:0013
#02615:0012120000000023
#0261c:0000000000121200
#02612:23
#02618:0000002300000000
#02712:0012120000000000
#02912:0012000000002300
#02917:0012000000002300
#02914:00120000
#02919:00120000
#02916:0000001213000000
#0291b:0000001213000000
#0291f:0021
#03415:0000000000120012
#03412:1300001200001200
#03417:1300001300000000
#0341b:00230000
#03416:00230000
#03517:0000000012000013
#03513:0000000000120000
#03512:1200000000000013
#03518:00000012
#0351b:0000001200000000
#0361b:0013000000130000
#03616:0013000000130000
#03612:0000001300000013
#03617:0000001300000013
#03812:2300001200000000
#03817:2300001300000000
#03816:0013000000000000
#0381b:0013000000000000
#03819:00000012
#0381c:0000000000000012
#03716:0000000000130000
#0371b:0000000000130000
#03712:0023
#03717:0023
#0431b:0000000000120013
#04316:0000000000001212
#04315:12
#04317:0012
#04313:0000001200000000
#04412:1213000012130000
#0441b:0000001300000013
#04418:0012000000120000
#0441c:00120012
#04416:0000001200000012
#04712:0012000000000012
#04714:00120000
#04719:00120000
#04716:0000001213000000
#0471b:0000001213000000
#05012:0000000000000013
#05017:1300000000120012
#0501c:0000120000120000
#0501a:0012001200000000
#0511c:0012000000000012
#0511a:00120000
#05115:00120000
#05118:0000001213000000
#05113:0000001200000000
#05112:0013
#05218:0000000012120000
#05212:0000000000120000
#05216:0000000000001212
#0521c:0000000000001212
#05217:13
#0521b:13
#05219:0000001200000000
#05312:1212000012000000
#05317:00120012000000000000000000001200
#05315:00000000120012000000001200000000
#0531a:00000000001200120000000000000000
#0531c:0000000012000012
#05319:0000000000121200
#0551c:1200000000000012
#05512:00120000000012001300000000000000
#0551a:0012000000001200
#05514:00000012000000000000000000000000
#05518:00120000
#05517:0000001212000000
#05617:0000001200000000
#05618:0000000000120000
#05619:0000000000000012
#0561c:12121212
#05616:13
#05612:0013
#0571c:1212000012000000
#05717:00120000000000000000000000001200
#05714:0000121200000000
#05719:00000000001200000000001200000000
#05712:0000000012000012
#05715:0000000000121200
#0591b:0013
#05916:00121300
#05915:0000000000120000
#05913:00000012
#05912:1200000000000012
#0591c:00120000000012000000000000000000
#05914:0012000000000000
#0591a:00000012000000000000000000000000
#05917:0000001200000000
#06017:1300001200000000
#06012:1300000000001212
#06014:0012000000000000
#06016:0000120012120000
#0601c:0000000000120000
#06018:0000000000001212
#06010:41
#06112:0012
#0611c:1212000012000000
#06117:00120012000000000000000000000000
#06115:0000000000120012
#06118:00000012
#06119:0000121200000000
#06114:00000000001200120000000000000000
#06212:1200000000000012
#0621c:1200001212000012
#06217:0000001212000000
#06215:00000012
#06219:0000000000120000
#06312:0000000012000012
#06314:12
#06317:0000000000000012
#06315:00000012
#06319:0000000000120000
#06318:00120000
#0631a:0000001200000000
#0631c:0012
#06316:0012000000000000
#0641c:0000001212000012
#06417:1200001212000000
#06412:1200000000000012
#06415:00000012
#06419:0000000000120000
#06514:12
#06517:0000000000000012
#06512:0000000012000012
#06515:00000012
#06516:0012000000000000
#06518:00120000
#0651a:0000001200000000
#0651c:0012
#06519:0000000000120000
#06612:12
#06617:1200001212000012
#0661c:0000001212000000
#06619:0000000000120000
#06615:00000012
#0671c:0000000012000012
#06717:0000001212130012
#06712:0000000000130000
#0061c:12
#0061a:0000001200000012
#00612:1212
#00617:0012
#00712:1200000000000013
#00717:1200000000001212
#0071c:0000001200000000
#05815:00000012
#05813:0000000000000012
#05817:0000001200120000
#0581c:0000000000120000
#0581a:00000012
#05818:0000000000000012
#05819:12
#05814:12
#05816:0012000000000000
#0581b:0012000000000000
#05812:0000001200000000
#0111a:0000000000120012
#01116:00001212
#01114:0000000000000012
#0111c:00000012
#01112:1200001200000000
#01119:0012000000000000
#01115:00120000
#0311c:1200000000001212
#03115:0000001200000000
#03119:0000001200000000
#03112:0013
#03117:0000000012000012
#03110:0041
#04117:0000001200130000
#04112:0000001200130000
#0411c:12
#04115:0012000000000000
#04118:00120000
#0411b:0023
#04116:0023
#04110:0041
#04217:0013000000000000
#04212:0013000000000012
#0421c:0000001200000000
#04216:2300001300000000
#04215:00000012
#0421b:23
#03919:1200001200000000
#03915:0000001200000000
#03912:0000000000001212
#0391b:0013
#03917:0000000012000012
#04816:13
#0481b:0013
#04812:1200120000000012
#04814:0000001300130000
#01816:00120012
#01814:0012001200120012
#01812:1212
#01818:1212
#0181c:00120012
#01810:41
#00112:0000001200000000
#00115:0012
#00119:0000000000120000
#0011c:00000012
#00113:0000000000000012
#00118:0000000000000012
#01415:0012001200000000
#01412:00120000
#01419:0000000000120012
#0141c:12000012
#01416:12000012
#01418:00120000
#01515:0012001200000000
#01512:00120000
#01518:00120000
#03217:1200001200000000
#03212:0000121300000000
#0321b:13
#0321c:0000000000121200
#03216:00000012
#03219:0000000000000012
#03312:1213
#03319:0012000000000000
#03316:00120023
#0331c:0000001200000000
#03317:0000001213000000
#0331b:00000023
#04017:1200001200000000
#0401c:00120000
#04012:1300000000121200
#0401b:0000001300000000
#04018:00000012
#04015:0000000000000012
#02219:1212
#0221c:0012000000120000
#02215:00120012
#02212:0000001200000012
#02214:1212
#0221a:00120012
#0221f:11
#02018:00120012
#0201a:0012001200120012
#0201c:1212
#02016:1212
#02012:00120012
#02415:1212
#02412:0012000000120000
#02419:00120012
#0241c:0000001200000012
#0241a:1212
#02414:00120012
#01959:5300000000230000
#01956:53
#0195b:0023000000000000
#01954:0023000063000000
#01957:0063
#01952:0000000000230000
#02358:0053
#02355:0053
#06956:00130000
#06952:53
#0695b:0013000000000000
#06857:0000530000000053
#0685b:5300001300000000
#06856:5300001300000000
#06852:00530000
#0465b:0000000000000053
#02552:00000013
#02557:53000013
#02556:0053
#01658:0053000000000000
#01655:0063
#0165b:0000132300000000
#01652:2300000000130000
#02156:53
#02152:00230000
#03056:5300005300000000
#0305b:53
#03057:00130000
#03052:00130000
#03457:6300006300000000
#03452:63
#0345b:00130000
#03456:00130000
#03552:0000000000000053
#03557:0000000000000053
#0365b:0053000000530000
#03656:0053000000530000
#03657:0000005300000053
#03652:0000005300000053
#03857:6300336300000000
#03856:0023000000000000
#0385b:0023000000000000
#03852:63330000
#0435b:0000000000000063
#04452:0063000000630000
#0445b:0000006300000063
#05052:0000000000000063
#05552:0053
#05656:53
#05652:0053
#0595b:0053
#06057:53
#06752:0000000000530000
#06757:0000000000530000
#03756:0000000000230000
#03752:00006333
#0375b:0000000000230000
#03757:00006333
#04157:0000000000230000
#04152:0000000000230000
#0415b:00005343
#04156:00005343
#04257:0023000000000000
#04252:0023000000000000
#0425b:53430000
#04256:5300435300000000
#0475b:0053
#04756:0053
#04856:53
#0485b:0053
#04854:0000005300530000
#05152:0053
#05158:0053
#05257:53
#0525b:53
#01756:00000013
#0175b:00000013
#01752:0000000000130000
#01757:0000000000130000
#03152:0053
#0325b:53
#03252:0000005300000000
#0395b:0063
#04052:63
#0405b:0000006300000000
#00752:0000000000000053
#0285b:13
#02852:13
#02956:0053
#0295b:0053
#02952:00000013
#02957:00000013
#03357:0063
#03352:0063
#0335b:00000013
#03356:00000013
#007370:0000001300000000
#007350:0023
#0073a1:0013
#007381:0000000000230000
#007340:0000000000130000
#007320:00000023
#007320:0000000000000013
#008350:33
#008360:0033333323000000
#0093b0:0013003300000000
#009380:00332300
#009351:0013003300000000
#009321:00332300
#0143b1:0000001222000000
#014331:0000000000000012
#015331:22
#0153b1:0000001222000000
#015370:0013
#015350:0000000000230000
#0153b1:0000000000130000
#015391:00000023
#015340:00000013
#015320:0000000000000023
#015381:0000000000000013
#016361:23
#016320:13
#016360:00230000
#016381:0013000000000000
#0163b1:00230000
#0163b1:0000001300000000
#016371:0000000000230000
#016350:0013
#016320:0000000000230000
#019390:13230000
#0193b0:0033000000000000
#019361:13230000
#019341:0033000000000000
#019341:00001323
#019321:0000000000330000
#019370:00001323
#019390:0000000000330000
#021360:1323
#021320:00530000
#0233b0:13230000
#023380:0033000000000000
#023321:13230000
#023351:0033000000000000
#023381:0013
#0233c1:00000022
#023350:0013
#023320:00000022
#025370:13
#0253b0:0053000023000000
#025361:0013
#025321:0000000000532300
#0263b1:13
#026371:00230000
#026321:0000001300000000
#026361:00000023
#026381:0000000000000013
#027381:0000005300000000
#0283b1:23
#027350:0000001300000000
#028320:23
#029360:0013
#029320:00000023
#0293b1:0013
#029371:00000023
#030361:13
#030321:00230000
#0303b0:13
#030370:00230000
#030360:0000001300005300
#030320:0000000000530053
#031360:23
#031320:0013
#031370:00000023
#0323b0:13
#032360:00230000
#032320:0000001300000000
#032370:0000000000230000
#033370:0013
#0333b0:00000023
#033321:0013
#033361:00000023
#034371:13
#0343b1:00230000
#034320:13
#034360:00230000
#034370:0000001300005300
#0343b0:0000000000530053
#035370:23
#035320:0000000000001353
#036360:23
#035371:0000000000000013
#0363b1:23
#0363b1:0013000000000000
#036371:00230000
#036360:0013000000000000
#036320:00230000
#036320:0000001300000000
#036360:0023
#036371:0000001300000000
#0363b1:0023
#0363b1:0000000000130000
#036371:00000023
#036360:0000000000130000
#036320:00000023
#036320:0000000000000013
#037360:23
#036371:0000000000000013
#0373b1:23
#037321:00001323
#037361:0000000000530000
#037370:00001323
#0373b0:0000000000530000
#038320:13230000
#038360:0053000000000000
#038371:13230000
#0383b1:0053000000000000
#038371:0000001300000000
#0383b1:0000000000230000
#038360:0000000000130053
#038320:00000053
#039320:23
#0393b0:0013
#039360:00000023
#040320:13
#040370:00230000
#0403b0:0000001300000000
#040360:0000000000230000
#0413b0:00001323
#041370:0000000000530000
#041361:00001323
#041321:0000000000530000
#0423b1:13230000
#042371:0053000000000000
#042360:13230000
#042320:0053000000000000
#042360:0000001300000000
#042320:0000000000230000
#042371:0000000000130053
#0423b1:00000053
#0433b1:23
#0433b1:0000000000001353
#044371:23
#044321:0013000000000000
#044361:00230000
#0443b1:0000001300000000
#044371:0023
#044321:0000000000130000
#044361:00000023
#0443b1:0000000000000013
#045371:23
#0453b1:00001333
#045381:0000000000330023
#0463b1:13330000
#046371:0033002300000000
#0463b1:0000000000000013
#047371:0023000000000000
#0473b1:0013
#048361:33
#0483b1:0033
#049361:23
#047360:0013
#047330:00000023
#048340:0000001300000000
#048360:0023
#048340:0000000000130000
#048320:00000023
#049321:00001333
#049351:0000000000330023
#050321:13330000
#050351:0033002300000000
#050321:0000000000000013
#051361:0023000000000000
#051321:0013
#052371:33
#052321:0023
#051380:0013
#0513b0:00000023
#0523b0:13
#052390:00230000
#055321:0013
#056361:53
#056321:0053
#057361:23
#0593b1:0013
#060371:53
#0603b1:0023
#066321:0000000000000013
#067331:23
#067380:13
#067390:0023000000000000
#067341:0013000000000000
#067351:00230000
#0673a0:00130000
#0673b0:0000002300000000
#067320:0000000000130000
#067360:00000023
#067371:0000000000130000
#0673b1:00000023
#0683b1:13
#068371:0023000000000000
#068360:13
#068320:0023000000000000
#068320:00130000
#068360:0000002300000000
#068371:00130000
#0683b1:0000002300000000
#068371:0000000000000013
#0693b1:0023000000000000
#069320:13
#069360:00230000
