This file was generated by Ched 2.6.2.0.
#TITLE ""
#ARTIST ""
#DESIGNER ""
#DIFFICULTY 0
#PLAYLEVEL
#SONGID ""
#WAVE ""
#WAVEOFFSET 0
#JACKET ""
#REQUEST "ticks_per_beat 480"
#00002: 4
#BPM01: 139
#00008: 01
#TIL00: ""
#HISPEED 00
#MEASUREHS 00
#03218:0000131300001300
#03215:1300000000000013
#03212:0000131300130000
#02319:0013
#02314:0013
#04612:0000000000000013
#0461b:0000000000130000
#0311b:1300000000000013
#03118:0000001300000000
#03112:0013
#03110:0041
#03012:0000000000130000
#03018:0000001300001300
#03015:2300000000000013
#00112:0000001300000000
#00115:00001313
#00118:0000000000130013
#0021b:1300001300000013
#00212:1313
#00217:0013
#00312:13
#00317:13
#0031b:0000001300000000
#00318:00001313
#00315:0000000000130013
#00412:1300001300000013
#0041b:1313
#00416:0013
#0051b:13
#00516:13
#00512:0000001300000000
#00515:00001313
#00518:0000000000130013
#0061b:1300001300000013
#00612:1313
#00617:0013
#00712:1300000000001313
#00717:13
#0071b:0000001300000000
#00715:0013
#00718:0000000000130013
#0081b:3333333300001300
#00815:3333333300001300
#00812:0000000000000013
#00818:0000000000000013
#00915:0013000000130000
#00912:0000333300000013
#0091b:0013000000001300
#00918:0000333300000000
#0101b:13
#01012:0013
#01018:0000000000000013
#01015:0000001300000000
#01010:41
#0111b:1300000000000013
#01112:0013
#01118:00000013
#01115:0000001300130000
#0141b:13
#01418:0013000000000013
#01412:0013
#01415:0000001300130000
#01617:0014000000000000
#01615:0000000014000013
#01618:00000013
#01612:13
#0161b:0000001300000000
#0171b:0013000000130000
#01718:0000001300000000
#01712:0013
#01715:00130013
#01818:1313
#0181b:00130013
#01815:0013000000130000
#01812:0000001300000013
#01810:41
#0211b:1313
#02115:00130000
#02118:0013001300000000
#02112:1313
#02912:0013000000000000
#02918:00130000
#02915:0000001300000000
#0291b:0023
#0291f:0021
#0331b:1313000000000000
#03315:00130000
#03318:0000001300000000
#03312:0023
#03615:0013000000130013
#0361b:0013000000130013
#03612:0000001300000000
#03618:0000001300000000
#04112:1313000000000000
#04112:13
#04118:00132300
#04115:0000001300000000
#04110:0041
#04718:00130000
#04712:0000001300000000
#04715:0000000000000013
#05515:0000001300000000
#05518:00333333000000001300000000000000
#05512:0013
#06018:13000013
#06012:1300000000000013
#0601b:0013
#06015:0000000000130000
#06010:41
#06115:1313000000000000
#0611b:1313000013000013
#06118:0000131300000000
#06112:0000131300000000
#06212:0000001300000000
#0621b:0000000000000013
#06215:1300000000000013
#06218:0013
#0631b:13
#06318:0013000013000000
#06315:00130000
#06312:0000001313000013
#0641b:0000001300000000
#06418:1300000000000013
#06412:0000000000000013
#06415:0013
#06515:0013000013000000
#06518:00130000
#06512:13
#0651b:0000001313000013
#0681b:0000000000130000
#06815:13000013
#06812:0000001300000000
#06818:0000001300000013
#01215:13
#01218:0013
#0121b:0000001300000000
#01212:0000000000000013
#01315:13000013
#0131b:0013
#01318:0000001300130000
#01312:0000000000000013
#01518:0013000013001300
#01515:0000001300130000
#0151b:1300000000000013
#01512:0013
#01918:13
#01915:0019000013000000
#01912:0000000000190000
#02518:0000130000130000
#02512:00130000
#0251b:0013
#02515:00000013
#02618:0013000000001300
#02615:0000130000130000
#02612:2300000000000023
#0261b:0000002300000000
#02715:0013000000000000
#02718:00130000
#02714:0000001300000000
#02719:0000001300000000
#03512:13000013
#0351b:0000001300000000
#03518:00001313
#03515:0000000000130013
#0341b:0000000000130000
#03415:0000001300001300
#03418:2300000000000013
#03718:00130000
#03712:00130000
#03715:0023
#04015:0000131300001300
#04018:1300000000000013
#0401b:0000131300130000
#03912:1300000000000013
#03915:0000001300000000
#0391b:0013
#0381b:2300000000130000
#03812:0000001300000000
#03815:00000013
#03818:0000000000000013
#0431b:13000013
#04312:0000001300000013
#04315:00001313
#04318:0000000000130000
#04212:2300000000130000
#0421b:0000001300000000
#04218:00000013
#04215:0000000000000013
#04818:0000001300000000
#04812:0000000000000013
#0491b:13
#04918:00130000
#04915:0013000000000000
#04910:41
#05115:00130000
#0511b:0000001300000000
#05118:0000000000000013
#05215:0000001300130000
#05218:00000013
#05212:0000000000000013
#0521b:0013
#0531b:1313000013000013
#05315:1313000000131300
#05318:00000000130013000000001300000000
#05312:0000131300000000
#0541b:0000001300000000
#05418:0013000000001300
#05415:1300001300000013
#05412:0013000000130000
#05712:0000000013000013
#05718:0000000000131300
#05715:13000000000000000000001300000000
#0571b:13
#05812:0000001300000000
#05815:0013000000001300
#05818:1300001300000013
#0581b:0013000000130000
#06718:0013000013130000
#0671b:13
#06715:00130000
#06712:0000001313000000
#06912:13
#0691b:0013000000000000
#06915:00130000
#0501b:0000000000000013
#05012:0000000000130000
#04418:0013000000130013
#04412:0013000000130013
#04415:0000001300000000
#0441b:0000001300000000
#06612:0000001300000000
#0661b:0000000000000013
#06615:1300000000000013
#06618:0013
#02015:1313
#02012:00130013
#02018:0013000000130000
#0201b:0000001300000013
#05615:13
#0561b:13
#05618:0013
#05612:0013
#05915:00333333000000001300000000000000
#0591b:0013
#05918:0000001300000000
#0221f:11
#02359:0053
#02354:0053
#04652:0000000000000063
#0105b:53
#01052:0053
#0115b:53
#0145b:53
#01458:0023000000000000
#01452:0063
#01455:0000000000230000
#01657:0054000000000000
#01655:0064
#03655:0000000000000063
#0365b:0000000000000063
#05558:0053
#05552:0053
#01255:63
#01258:0063
#01355:63
#01958:53
#01955:0029000063000000
#01952:0000000000290000
#03152:0053
#0395b:0063
#06758:0000000000630000
#06855:63
#06852:0000001300000000
#06858:0000001300000000
#0695b:0013000000000000
#06955:00130000
#0505b:0000000000000053
#04458:0000000000000053
#04452:0000000000000053
#0175b:0000000000130000
#01755:00000013
#0295b:0053
#02958:00000013
#03055:53
#03052:00130000
#03858:00130000
#0385b:53
#03752:00000013
#03755:0053
#0155b:53
#01558:0023000000000000
#00752:0000000000000063
#00758:0000000000000063
#0095b:0063000000000000
#00955:0063000000000000
#02852:13
#0285b:13
#02759:0000005300000000
#02754:0000005300000000
#03458:63
#0345b:00130000
#03352:0063
#03355:00000013
#04252:63
#04255:00130000
#04158:0063
#0415b:00000013
#05655:63
#0565b:63
#05658:0053
#05652:0053
#05755:63
#0575b:63
#05955:0063
#0595b:0063
#06058:53
#06052:53
#007380:0000000000000013
#0083b0:3333333323000000
#007321:0000000000000013
#008351:3333333323000000
#0093b1:0013000000000000
#009381:0000333323000000
#009350:0013000000000000
#009320:0000333323000000
#0103b0:13
#010380:00230000
#010320:0013
#010350:00000023
#0113b0:13
#011380:00230000
#012350:13
#012320:00230000
#012380:0013
#0123b0:00000023
#013350:13
#013320:00230000
#0143b0:13230000
#014380:0053000000000000
#014320:00001323
#014350:0000000000530000
#0153b0:13230000
#015380:0053000000000000
#016370:0014000000000000
#0163a0:00240000
#016350:0014
#016320:0000000000240000
#019380:13230000
#019350:0059000000000000
#019350:00001323
#019320:0000000000590000
#0223b0:1323000000000000
#022351:1323000000000000
#022381:0000132300000000
#022320:0000132300000000
#0223b0:0000000013230000
#022351:0000000013230000
#022381:0000000000001323
#022320:0000000000001323
#0233b0:13230000
#023380:0033000000000000
#023321:13230000
#023351:0033000000000000
#023391:0013
#0233b1:00000023
#023340:0013
#023320:00000023
#024320:1323000000000000
#024381:1323000000000000
#024351:0000132300000000
#0243b0:0000132300000000
#024320:0000000013230000
#024381:0000000013230000
#024351:0000000000001323
#0243b0:0000000000001323
#027340:0000001300000000
#028320:23
#027391:0000001300000000
#0283b1:23
#0293b1:0013
#029381:00000023
#030351:13
#030321:00230000
#031321:0013
#031351:00000023
#033321:0013
#033351:00000023
#034381:13
#0343b1:00230000
#036351:0000000000000013
#037321:23
#0363b0:0000000000000013
#037380:23
#037350:0013
#037320:00000023
#0383b0:13
#038380:00230000
#0393b0:0013
#039380:00000023
#041380:0013
#0413b0:00000023
#042320:13
#042350:00230000
#044380:0000000000000013
#0453b0:23
#044321:0000000000000013
#045351:23
#0453a1:00001434
#045381:0000000000340024
#046341:14340000
#046321:0034002400000000
#046321:0000000000000013
#047351:0023000000000000
#0473b1:0013
#047381:00000023
#048321:13
#048351:00230000
#0483b1:0013
#048381:00000023
#049321:00001434
#049341:0000000000340024
#050381:14340000
#0503a1:0034002400000000
#0503b1:0000000000000013
#051381:0023000000000000
#051321:0013
#051351:00000023
#0523b1:13
#052381:00230000
#0553b1:13
#055381:00333333230000000000000000000000
#055381:0013
#0553b1:0000000000000023
#055320:0013
#055350:0000000000000023
#056350:13
#056320:0000002300000000
#0563b1:13
#056381:0000002300000000
#056381:0013
#0563b1:0000000000000023
#056320:0013
#056350:0000000000000023
#057350:13
#057320:0000002300000000
#0573b1:13
#057381:0000002300000000
#059321:13
#059351:00333333230000000000000000000000
#059351:0013
#059321:0000000000000023
#0593b0:0013
#059380:0000000000000023
#060380:13
#0603b0:0000002300000000
#060321:13
#060351:0000002300000000
#067381:0000000000130000
#0673b1:0000000000000023
#068351:13
#068321:00230000
