This file was generated by Ched 2.6.2.0.
#TITLE ""
#ARTIST ""
#DESIGNER ""
#DIFFICULTY 0
#PLAYLEVEL
#SONGID ""
#WAVE ""
#WAVEOFFSET 0
#JACKET ""
#REQUEST "ticks_per_beat 480"
#00002: 4
#BPM01: 139
#00008: 01
#TIL00: ""
#HISPEED 00
#MEASUREHS 00
#05314:0000000000120000
#05312:00130000000000000000000000001200
#0531a:00130012
#05317:00001300000000130000001200000000
#0531c:0012
#05316:13000000001300000000000000000000
#05313:00000013000000000000000000000000
#0531b:0000001300000000
#05415:00000012
#0541c:0000000000000012
#05412:0012001200120000
#05417:12120000
#05419:00000012
#0461c:0012000000000012
#04617:0012000000120012
#04612:0000000000120000
#04619:0000001200000000
#04615:1600161200000000
#03017:1200001200121200
#0301a:0013000000000012
#03012:12000000230012000000000000120000
#03015:00000000000000000000000000000012
#03016:00000013000000000000000000000000
#00112:0000001200000000
#00114:0012
#00116:0000000000120000
#00118:00000012
#0011a:0000000000000012
#0021c:1200001200000012
#00217:0012
#00216:12
#00212:00121200
#00218:00120000
#0021a:0012000000000000
#00214:0012000000000000
#00312:1200000000120000
#00317:12
#0031c:0000001200001200
#0031a:0000000012000012
#00318:0000000000120000
#00316:00000012
#00314:0000000012000012
#0081c:12000012
#00817:0000120000001212
#00814:1212000000000000
#0081a:0000001212000000
#00812:0000000012000012
#00818:0012000000000000
#00816:0000001200000000
#01616:00000012
#0161c:00000012
#01612:0000000000000012
#01618:0000000000000012
#01615:0000001300000000
#0161b:13
#01712:0012000000120000
#01717:0000000000121200
#01714:00120000
#01716:0000001212000000
#0171c:00001212
#01718:0012120000000000
#0171a:0000001200000000
#0211c:1212
#02118:0012000000000000
#02115:00000012000000000000000000000000
#02116:0000001200000000
#02112:00120012
#02117:12000012
#02119:00000000000000120000000000000000
#02515:16
#02517:0000120000120000
#0251c:00000012
#02512:1212
#02518:0016
#02916:0012000000000000
#02914:0000120000000012
#02912:0000001200000000
#0291c:0012000012000000
#02918:0000001200000000
#0291a:00120000
#02919:0000000000000012
#02917:00000000000000001200001300000000
#02913:0000000000130000
#0291b:00000023
#0291f:0021
#05212:0000001212120000
#05216:0000000000001212
#0521c:1200000000001212
#05218:0000000000120000
#0551c:1212
#05517:00120000000012001200000000001200
#0551a:0012000000001200
#05512:0000001200000000
#05515:00000012000000000000000000000000
#05518:00120000
#05617:0000001200120012
#05614:12
#05612:00120012
#0561c:0012
#0571c:1212000012000012
#05717:00120000001200000000001200000000
#05712:0000121212000000
#0571a:0000000000120000
#05714:00000012
#06112:0000120012000012
#0611c:12001212
#06117:0000001200120012
#0621c:1212
#06212:0000001200000012
#06217:0000001200000000
#06314:1200001200000000
#06316:0012120000000000
#0631c:0000120000000012
#0631a:0000001200000000
#06318:0012
#06317:0000000000000012
#06312:0012
#06412:1212
#0641c:0000001200000012
#06417:0000001200000000
#0651a:1200001200000000
#06518:0012120000000000
#06512:00120000
#06514:0000001200000000
#06516:0012
#06517:0000000000000012
#0651c:0012
#0661c:1212
#06617:0000001200000012
#06612:1212
#0681c:1200001200120000
#0681a:00000012
#06816:0000000000121200
#06818:0000000000000012
#06814:0000000000000012
#06817:1200121200000000
#0311c:1212000012000000
#03117:0000001212000012
#03116:0014140000000000
#03112:00120000
#03110:0041
#06918:12
#0691c:0012000000000000
#06917:0012120000000000
#06912:12120000
#00412:1200001200000012
#00417:0012
#0041c:00121200
#00418:12
#00416:00120000
#00414:0012000000000000
#0041a:0012000000000000
#0051c:1200000000120000
#00517:12
#00512:0000001200001200
#00514:0000000012000012
#00516:0000000000120000
#00518:00000012
#0051a:0000000012000012
#00715:00001212
#00718:0000000000000012
#00712:1200001200000012
#0071c:12001212
#00719:0000000000120000
#03717:0000120022000012
#03713:00120000
#03719:12
#03716:00120000000000000000000000000000
#03718:0012000000002300
#03715:00000012000000000000001300000000
#03712:0000000000130012
#0371b:0000000000130000
#0371c:0022
#0471c:0012
#04712:0012000000000012
#04714:00120000
#04716:0000001212000000
#04812:1200000000000012
#0481c:0000001212000000
#05012:0012000000000012
#05017:0012000000120012
#0501c:0000000000120000
#05015:1600161200000000
#05019:0000001200000000
#05112:0012
#0511c:0012000000000012
#0511a:00120000
#05118:0000001212000000
#0601c:1200000000120000
#06018:0000000000001212
#06012:00001212
#06016:0000000000120000
#06017:0012001200000000
#06010:41
#0091c:0012001200000000
#00918:00000000120000001200001300001300
#0091b:0000000000130000
#00912:00000013
#00915:00000000000000000000000000130013
#0231a:14
#02312:14
#02316:000000000000000000000000000000000000000000000000000000000000000000000000000000000000000000000000000000000000000000000000000000000000000000000000000000000000000000000000000000000000000000000014140000000000000000000000000000000000000000000000000000000000000000000000000000000000000000000000000000000000000000000000000000000000000000000000000000000000000000000000000000000000000000000000
#03217:12120000
#03212:0012
#03218:0012
#0321c:0000000000120000
#03216:0000000000120000
#01012:1312
#01014:00000000000012000000000000001212
#01015:0012000000120000
#01017:00120012
#0101c:1200000000000012
#01019:0012000000120000
#0101a:00000000000012120000000000000000
#01010:41
#01112:0012001200000000
#01114:00000000000000001200000000130013
#01116:0000120000120000
#01118:0000001200001200
#0111a:1200000012000012
#0111c:0012120000120000
#0261a:0013000000000000
#02612:2200130000000022
#02614:1600000000130016
#02616:00000013000016000000000013000000
#02619:00000000000000000000001300000000
#0261b:00000000000000000000000000130000
#0261c:0000002200000000
#02719:0013000000000000
#02717:00130000
#02718:0000001600000000
#02716:0000001200000000
#02714:00000013000000000000000000000000
#02712:00000000001300000000000000000000
#03512:1313000012000000
#03516:0014140000120000
#03518:0000001200001200
#0351c:0000000000000012
#0351a:0000000000120000
#03514:00000012
#0351b:00130000
#03817:2200001200120000
#03815:00000000230000000000000000120000
#0381b:0013000000001200
#03818:00000013000000000000000000001200
#03812:00001300000012000000000000000012
#0381c:22
#06717:0000001212120012
#06712:0000000000120000
#0671c:0012
#00618:0000120000000012
#0061c:1212
#00612:00121200
#00616:1200001200000000
#0061a:0012000000000000
#00614:0012000000000000
#03619:12
#03612:0012000000000000
#03615:00120000
#03617:0000001200120000
#0361a:0012
#03614:00000012
#0361c:0000000000000012
#04512:1200120000120000
#0451c:00120000
#04519:0012000000000012
#04515:0012000016001612
#04517:0000000000120000
#03417:12000013000012000000120012000000
#0341c:12000000000012000000000000120000
#03413:0013000000000000
#03414:0000000000000012
#03419:00000000000000000000000000000012
#0341b:00230000
#0391c:1212000000000000
#03916:0014140000000000
#03912:00121200
#03917:0000001212000012
#0131c:0012001200000000
#0131a:0012
#01318:0000120000120000
#01316:0000001200001200
#01314:1200000012000012
#01312:0012120000120000
#01319:00000000000000000000000000130013
#03312:12001223
#03318:12
#03316:00001200140000000000001300000000
#0331c:0012000000000000
#0331b:00000000001200000000000000000000
#03314:0000001400000000
#03319:00000000000000120000000000000000
#0331a:0000000000130012
#03315:0000000000000012
#03317:0012
#05819:00000012
#05812:0000000000000012
#0581c:0012001200120000
#05817:12120000
#05815:00000012
#05919:00000012000000000000000000001200
#05917:00120000000012001200000012000000
#05915:0000000000120000
#05912:1212
#0591c:0000001200000000
#05914:0012000000000000
#05916:00120000
#0491c:00000000000000120000120000000000
#04918:00000012000000000000000000000000
#0491b:00000000001200000000000000000000
#04917:00120000000012000000120000000000
#04916:00120000
#04912:12
#04913:0012000000000000
#04915:0000000016001612
#04919:0000000000000012
#04910:41
#01816:1212
#01814:0012001200120000
#01812:00120012
#01817:0000000000000012
#0181c:0000000000000012
#01810:41
#02017:0000000000000012
#02012:0000000000000012
#02018:1212
#0201a:0012001200120000
#0201c:00120012
#02212:1200000000000012
#02215:0012000000120000
#02219:0000001200000000
#02217:0000000000001212
#0221f:11
#02417:1200000000000012
#02412:0012000000120000
#0241c:0000001200000012
#0431c:0012
#04318:0000000000120000
#04316:0014141200001200
#04312:1313000000000012
#04314:0000000000120000
#0431a:00000012
#0431b:00130000
#04416:1200001200000012
#0441c:0012000000001200
#04418:0000120000120000
#04412:0012
#0121c:1212
#01212:1200000000000012
#0121a:00000000000012000000000000001212
#01219:0012000000120000
#01217:00120012
#01215:0012000000120000
#01214:00000000000012120000000000000000
#01415:00000000000000120000000000000000
#01412:1212
#01413:0012000000000000
#01417:0012120000121200
#0141b:0000000000120000
#01418:0000001200000000
#0141c:1212
#01419:00000000000000000000000000000012
#01416:0000000000000012
#01516:0012000000000012
#0151c:1212000000000000
#01514:00120000
#0151a:00120000
#01518:0000001200000000
#01512:12
#04017:12121200
#0401c:0012
#04012:1400000000120000
#04018:0000000000120000
#04016:0014001400000000
#0401a:00140000
#0411c:1200000022000012
#04116:12140000
#04118:00001200000014000000001300000000
#04112:0012000000130000
#04117:0000000022000012
#0411b:0000000000130000
#04113:00000000001200000000000000000000
#04115:00000000000000120000000023000000
#04110:0041
#0281c:12
#01918:12121200
#0191b:0012001200120000
#01916:12121200
#01913:0012001200120000
#04217:2200001200120000
#04219:00000000000000000000000000120000
#04213:00000012
#04216:0000000000000012
#0421c:00000000000012000000000000000012
#04212:2213000000000000
#04215:00000013000000000000000000000000
#0421b:0013000000000000
#04218:00230000
#0465c:0000000000000052
#04655:36360000
#00857:0000000000000012
#00852:0000000000000052
#0255c:00000012
#03157:0052
#0315c:0012000000000000
#03152:00120000
#03757:00120000
#03753:00120000
#03758:00000043
#0475c:0022
#04852:22
#0485c:0022
#05052:0000000000000062
#05055:46460000
#05152:0022
#0525c:22
#0235a:54
#02356:000000000000000000000000000000000000000000000000000000000000000000000000000000000000000000000000000000000000000000000000000000000000000000000000000000000000000000000000000000000000000000000054540000000000000000000000000000000000000000000000000000000000000000000000000000000000000000000000000000000000000000000000000000000000000000000000000000000000000000000000000000000000000000000000
#02352:54
#03057:0000005200000000
#03052:00330000
#03457:0000006200000000
#0345b:00430000
#03857:0000005200000000
#03855:00330000
#05452:0000001200120000
#05455:00000012
#0545c:0000001200000012
#05459:00000012
#06757:0000000000620000
#02758:0000001600000000
#02756:0000005200000000
#02654:1600000000000016
#02656:0000001600000000
#03957:0062
#0395c:0042000000000000
#03952:00320000
#00252:0012
#00257:0012
#0025c:42
#00357:12
#00352:12
#00457:0012
#0045c:0012
#00452:32
#00557:12
#0055c:12
#00652:0012
#0065c:4212
#0075c:12
#00752:12
#0105c:12
#01052:0012
#0115a:12
#05859:00000012
#05852:0000001200000012
#0585c:0000001200120000
#05855:00000012
#06857:5200001200000000
#0685c:0000001200000000
#05659:0000001200000012
#05655:0000000000120000
#01752:0000000000320000
#0175c:00000042
#0225c:00420042
#02252:3232
#0695c:0042000000000000
#06952:00320000
#04555:00004646
#01252:12
#0125c:0012
#04955:00003636
#01452:0012
#0145c:12
#02457:12121212
#01354:12
#0155c:12
#01657:0000000000430000
#01652:0000330000320000
#01658:00420000
#0295b:00000043
#02852:12
#0285c:12
#01958:52525200
#0195b:0022002200220000
#01956:62626200
#01953:0022002200220000
#03352:00000033
#04257:0000006200000000
#04258:00430000
#04155:00000033
#04352:0033000000000000
#0435b:00430000
#03552:0013000000000000
#0355b:00130000
#008320:0000000000000012
#009360:00522200
#015320:0000001200000000
#015340:0022
#015371:0012
#015391:0000000000220000
#015350:0000000000120000
#015370:00000022
#0153a1:00000012
#0153c1:0000000000000022
#016361:13
#016321:0053230000000000
#016380:0012220000000000
#0163b0:0000001300000000
#016370:0000000053230000
#016321:0000000012220000
#0183c1:1200005232000000
#018381:0052320000522200
#019381:12323222
#0193b1:0052005200520000
#019360:12323222
#019330:0052005200520000
#020320:1200005232000000
#020360:0052320000522200
#022370:12
#0223c0:0052220000000000
#022371:00120000
#022321:0000005222000000
#022370:0012
#0223c0:0000000000522200
#0233a0:14000024
#023360:000000000000000000000000000000000000000000000000000000000000000000000000000000000000000000000000540000000000000000000000000000000000000000000000000000000000000000000000000000000000000000000034000000000000000000000000000000000000000000000000000000000000000000000000000000000000000000000000000000000000000000000000000000000000000000000000000000000000000000000000000000000000000000000000
#023321:14000024
#023361:000000000000000000000000000000000000000000000000000000000000000000000000000000000000000000000000005400000000000000000000000000000000000000000000000000000000000000000000000000000000000000000000340000000000000000000000000000000000000000000000000000000000000000000000000000000000000000000000000000000000000000000000000000000000000000000000000000000000000000000000000000000000000000000000
#0243c1:12
#024371:0052220000000000
#024320:00120000
#024370:0000005222000000
#0243c1:0012
#024371:0000000000522200
#027361:0000001200000000
#028321:22
#030371:0000001200000000
#0303c1:0000000000220000
#031371:0012
#031321:0000000000000022
#0323c1:12
#032381:0022000000000000
#032321:00120000
#032361:0000002200000000
#032321:00000012
#032361:0000000000000022
#032380:00000012
#0323c0:0000000000000022
#034370:0000001200000000
#034320:0000000000220000
#035340:0000000000000012
#036360:22
#0363c0:0012000000000000
#0363a0:00220000
#036320:0000001200000000
#036340:0022
#0363c0:0000000000120000
#0363a0:00000022
#036320:0000000000000012
#037340:22
#038370:0000001200000000
#0383c0:0000000000220000
#039370:0012
#0393c0:0000000000000022
#0403c0:00000012
#040380:0000000000000022
#040361:00000012
#040321:0000000000000022
#042371:0000001200000000
#042321:0000000000220000
#043381:0000000000000012
#0443a1:22
#044321:0012000000000000
#044341:00220000
#0443c1:0000001200000000
#0443a1:0022
#044341:0000000000120000
#044321:00000022
#0443a1:0000000000000012
#0453c1:22
#0463c1:0000000000000012
#047371:0022000000000000
#0473c1:0012
#048371:22
#048320:12
#048370:0022
#0483c1:0012
#049371:22
#050321:0000000000000012
#051371:0022000000000000
#051321:0012
#052371:22
#0523c0:12
#052370:0022
#0543c0:0012002200000000
#054390:00520000
#0563c0:00120000
#056390:0000002200000000
#056320:0012
#056350:0000000000220000
#0563c0:00000012
#056390:0000000000000022
#058320:0012002200000000
#058350:00520000
#060320:12220000
#060350:0052000000000000
#0603c1:00122200
#060391:0000005200000000
#060321:0000000000000012
#061361:0022000000000000
#061380:0012000000000000
#0613c0:0000002200000000
#0663c0:0000000000000012
#0673a0:22
#067371:12
#067351:0022000000000000
#067390:0012000000000000
#067370:00220000
#067341:00120000
#067321:0000002200000000
#067371:0000000000120000
#0673c1:0000000000000022
#068371:12
#068321:00220000
