This file was generated by Ched 2.6.2.0.
#TITLE ""
#ARTIST ""
#DESIGNER ""
#DIFFICULTY 0
#PLAYLEVEL
#SONGID ""
#WAVE ""
#WAVEOFFSET 0
#JACKET ""
#REQUEST "ticks_per_beat 480"
#00002: 4
#BPM01: 139
#00008: 01
#TIL00: ""
#HISPEED 00
#MEASUREHS 00
#0021a:14
#00214:0014
#00318:14000014
#00312:0014
#00412:14
#00418:0014
#0051a:0014
#00514:14000014
#00612:0014
#0061a:14
#00718:14000014
#00714:0014
#00812:14
#00816:00140000
#0081a:00001414
#0101a:14
#01014:00140000
#01018:0014
#01012:00000014
#01010:41
#0111a:14
#01114:00140000
#0141a:14140000
#01512:14140000
#0161a:14140000
#01712:14140000
#0181a:14
#01814:0014
#01810:41
#02012:14
#02016:0014
#0221a:14
#02212:0014
#0221f:11
#02412:14
#0241a:0014
#02613:1400001400000000
#02619:1400001400000000
#02612:0000000000000014
#0261a:0000000000000014
#02712:0000001400000000
#0271a:0000001400000000
#01918:00140000
#0191a:14
#02114:00140000
#02112:14
#0231a:00140000
#02318:14
#0301a:14
#03014:0000140000140014
#03018:00001414
#02914:00000014
#0291a:0024
#0291f:0021
#03412:14
#03418:0000140000140014
#03414:00001414
#03318:14140014
#03312:0014
#03314:0014000000000000
#0451a:1414
#04514:00000014
#04512:00140000
#04612:00140000
#04618:14
#05312:0014
#05318:00000014
#05314:14
#0531a:00140000
#0561a:0014
#05912:0014
#0591a:00343434000000000000000000000000
#0601a:0014
#06010:41
#06112:00140000
#0611a:0014
#06318:00140000
#06312:14
#06314:0014
#06218:0014
#06214:14
#06612:14
#0661a:0014
#06618:14
#06614:0014
#06712:1414
#0671a:00140000
#06914:0014000000000000
#06918:14140000
#0681a:14
#06812:0014
#03112:00001414
#03118:14001414
#03110:0041
#03214:14141414
#03218:0014000000000000
#0321a:00001414
#03814:14
#0381a:1414
#03812:0000140000140014
#03818:00140014
#03912:0014
#03918:0014
#0391a:14
#0401a:1414
#04012:00140000
#04014:0014
#04112:1414
#0411a:00140014
#04114:00000014
#04118:0014
#04110:0041
#03712:00000014
#03718:0014000000001400
#03714:14142400
#0371a:0024
#04218:14
#04212:1414
#0421a:0000140000140014
#04214:00140014
#0091a:14
#00916:00140000
#00912:0014
#01212:14
#01218:00140000
#01214:0014
#0121a:00000014
#01312:14
#01318:00140000
#02512:00140000
#02514:14
#03514:14001414
#0351a:00001414
#03618:14141414
#03614:0014000000000000
#03612:00001414
#0431a:0014
#04314:0014
#04312:14
#04412:1414
#0441a:00140000
#04418:0014
#0471a:0014
#0481a:0014
#04812:14
#04912:1414
#04918:00000014
#04910:41
#05112:0014
#0521a:14
#05212:0014
#05218:00000014
#05712:14
#0571a:0014
#05714:00000014
#06514:00140000
#0651a:14
#06518:0014
#06414:0014
#06418:14
#0501a:00140000
#05014:14
#05414:14
#05418:00140014
#05412:0014
#05818:14
#05814:00140014
#0581a:0014
#05512:00343434000000000000000000000000
#0185a:14
#01854:0014
#02052:14
#02056:0014
#0225a:14
#02252:0014
#02452:14
#0245a:0014
#02752:0000002400000000
#0275a:0000002400000000
#01958:00240000
#0195a:54
#02154:00240000
#02152:64
#0235a:00240000
#02358:64
#0565a:0064
#05952:0064
#0605a:0064
#0685a:64
#06852:0054
#06752:0064
#03958:0064
#03952:0064
#0405a:0054
#04054:0054
#02552:00240000
#02554:54
#0435a:0054
#04354:0054
#04452:0064
#04458:0064
#0475a:0054
#04852:54
#0485a:0054
#04952:5414
#04958:00000014
#05152:0064
#0525a:64
#05752:54
#0455a:0014
#04554:00000014
#04658:14
#04652:00140000
#05054:14
#0505a:00140000
#011380:00001424
#013340:00001424
#014340:0014
#014320:00000024
#015380:0014
#0153a0:00000024
#016340:0014
#016320:00000024
#017380:0014
#0173a0:00000024
#0193a0:1424
#019380:00540000
#021320:1424
#021340:00540000
#023380:1424
#0233a0:00540000
#025340:1424
#025320:00540000
#027320:0000001400000000
#028340:24
#0273a1:0000001400000000
#028381:24
#039381:0014
#0393a1:00000024
#039320:0014
#039340:00000024
#040340:0014
#040320:00000024
#0403a1:0014
#040381:00000024
#043341:0014
#043321:00000024
#0433a0:0014
#043380:00000024
#044380:0014
#0443a0:00000024
#044321:0014
#044341:00000024
#0473a1:0014
#047381:00000024
#048321:14
#048341:00240000
#0483a1:0014
#048381:00000024
#049321:14
#049341:00240000
#051321:0014
#051341:00000024
#0523a1:14
#052381:00240000
#055341:14
#055321:00343434240000000000000000000000
#0553a1:0014
#055381:00000024
#056321:14
#056341:00240000
#0563a1:0014
#056381:00000024
#057321:14
#057341:00240000
#059381:14
#0593a1:00343434240000000000000000000000
#059321:0014
#060351:24
#0603a1:0014
#061371:24
#067321:0014
#067341:00000024
#0683a1:14
#068381:00240000
#068321:0014
#068341:00000024
