This file was generated by Ched 2.7.0.0.
#TITLE ""
#ARTIST ""
#DESIGNER ""
#DIFFICULTY 0
#PLAYLEVEL
#SONGID ""
#WAVE ""
#WAVEOFFSET 0
#JACKET ""
#REQUEST "ticks_per_beat 480"
#00002: 4
#BPM01: 152
#00008: 01
#TIL00: ""
#HISPEED 00
#MEASUREHS 00
#0011a:14
#0021a:14
#00312:14
#00412:14
#00518:14
#00510:41
#00614:14
#00718:14
#00814:14
#0091a:14
#01012:14
#0111a:14
#01212:14
#01210:41
#01318:14
#02918:2616
#0291f:21
#03012:1616
#03010:41
#03118:16
#03312:1616
#03418:1616
#03512:16
#03912:16
#03918:0016
#04012:16
#04018:0016
#04318:16
#04312:0016
#04310:41
#04418:16
#04412:0016
#0451a:14
#01418:14
#01514:14
#01614:14
#0171a:14
#0181a:14
#01912:14
#02012:14
#02010:41
#04614:14
#04718:14
#04812:14
#0491a:14
#05014:14
#05010:41
#05118:14
#05212:14
#0211f:11
#021380:14
#022380:24
#023320:14
#024320:24
#0253a0:14
#0263a0:24
#027340:14
#028340:24
#031380:0016
#032380:3626
#035320:0016
#036320:3626
#037380:16
#038380:26
#041320:16
#042320:26
#053340:00180000
#057360:00000024
