This file was generated by Ched 2.7.0.0.
#TITLE ""
#ARTIST ""
#DESIGNER ""
#DIFFICULTY 0
#PLAYLEVEL
#SONGID ""
#WAVE ""
#WAVEOFFSET 0
#JACKET ""
#REQUEST "ticks_per_beat 480"
#00002: 4
#BPM01: 152
#00008: 01
#TIL00: ""
#HISPEED 00
#MEASUREHS 00
#00418:00000000000012000000001200001300
#00415:00000000000000000000000000000013
#00414:1200000000120000
#00416:00000012000000001200000000000000
#0041a:00000000000000000012000000000000
#00412:00000012
#0041b:23230000
#00515:00000013000000000000000000001300
#00518:00000000000000000000000000000013
#0051b:0000001300000000
#00512:00000000000000000000001300000000
#00510:41
#0241a:0013000000000000
#02415:0000130000000013
#0241b:0000130000130000
#02418:00000013
#02419:23
#02319:0013000000000000
#0231a:00130000
#02314:0013
#02313:0000000000130000
#03612:0000000000140000
#03616:00240014
#0361a:0000000000000014
#03915:00130000
#03918:0000001300000000
#0391b:00001313
#03916:0013
#03912:0013000000000000
#04019:0013000000130000
#04017:00131300
#04012:00131300
#04014:0013000000130000
#0401b:23000023
#04016:23000023
#03216:00000000000000180000000000000000
#03213:00000013
#03218:0000002400000013
#03212:0026000000000000
#00018:0000000000000012
#00014:00000000000000000000000000000012
#00116:00000012000000001200000000000012
#00114:00000000000012000000001200000000
#0011c:0000000000000012
#0021a:12000000000000001200000000000012
#00218:00000012000000000000000000000000
#00216:0000001200000012
#00214:0012
#00312:0000000000000012
#00318:00000012000000001200000000000012
#0031a:00000000000012000000001200000000
#01517:13
#01516:0013
#01512:1300000000000013
#0151b:0000001313000000
#01617:1300001313000000
#01612:13000000000000130000000000000000
#0161b:0000130000000013
#01619:0000000000131300
#01616:00000000000000000000000000000013
#01614:00000000000000000000001300000000
#01316:00000013000000000000000000001300
#0131a:00000000000000000000000000000013
#0131b:0013000000001300
#01313:00000000000000000000001300000000
#01317:00000000000000130000130000000000
#01319:00130000
#01312:0000001300000000
#01314:0013
#01916:13
#01917:0013
#0191b:1300000000000013
#01912:0000001313000000
#01218:0000001300000000
#01215:0013
#0121a:24000024
#01212:00000024000000000000000024000000
#01210:41
#02118:00131313
#0211b:2300001300130000
#0211f:11
#02215:0013001300001300
#02212:23131300
#02818:2300002300130000
#02815:00000023000000000000001300000000
#02812:00002323
#0281b:00002323
#0291a:00120012
#02914:0012
#02916:0000001200000000
#02918:22
#0291f:21
#0381b:1300000000000013
#03817:0013
#03815:0000000000000013
#03812:0000001300000013000000130000001300000013000000130000000000000000
#03813:13131313131313131313131300000000
#03814:0013000000130000001300000013000000130000001300000000000000000000
#04318:00130000
#04315:0000001300001300
#04312:0000000013000013
#04317:0013
#0431b:0013000000000000
#04310:41
#04212:1300000000000013
#04218:0000000000000013
#04216:0013
#0421b:0000001300000013000000130000001300000013000000130000000000000000
#0421a:13131313131313131313131300000000
#04219:0013000000130000001300000013000000130000001300000000000000000000
#03012:0012001200000000
#03014:12
#0301a:0000000012000012
#0301c:0000000000121200
#03018:0000001200000000
#03016:00000000000000000000001200000000
#03010:41
#03313:00130000
#03317:0000001300000000
#03319:0013
#03314:00000013
#03316:23
#0341b:0013001300000000
#03419:13
#03416:0000001300000000
#03414:0000000013000013
#03412:0000000000131300
#03417:00000000000000000000001300000000
#0441b:2300000000000013
#04415:00000000000000000000000000000013
#04416:24240000
#04419:0025
#04412:00232500
#04518:13
#04519:0000000000000013
#04514:00000000000000000000000000000013
#04512:0000001300000000
#0451b:00000000000000000000001300000000
#04516:00000013000000000000000000000000
#00612:00000013
#00615:0000000000000013
#00618:00000000000000000000000000000013
#04612:0000000000001313
#04618:00000000000013000000000000000013
#04615:0013
#0461b:0013
#04617:0000000000130000
#04815:00000000000013000000000000000013
#0481b:00000013
#04818:0000000013000013
#04812:0013
#04816:0000000000130000
#04813:000000000000000000000000003300000033000000000000
#04814:000000000000003333000000
#0491b:13000000000000000000001300000000
#04912:00000013000000000000000000000013
#04918:0000000000000013
#04915:0000001300000000
#04917:00000013000000000000000000000000
#04916:0013
#0501b:1300001313000000
#05012:00000013000000001300000000000000
#05015:0000000000001313
#05018:00000000000000000000000000000013
#05017:0000000000130000
#05010:41
#02719:2300141414141400
#02715:00000000000000000000000000000013
#02713:0000141414141400
#02718:0000000000000013
#02714:23
#03118:1200000000000026
#0311b:0000002300000000
#03116:0000002300000000
#03112:0000000000260000
#03516:13
#03514:0000000000000024
#03518:0000000000000024
#03512:0000002300000000
#0351b:0000002300000000
#03714:0000001300000000
#03716:1313
#03712:00130000
#0371b:0000001300000013000000130000001300000013000000130000000000000000
#0371a:13131313131313131313131300000000
#03719:0013000000130000001300000013000000130000001300000000000000000000
#04119:0000001300000000
#04117:1313
#0411b:00130000
#04112:0000001300000013000000130000001300000013000000130000000000000000
#04113:13131313131313131313131300000000
#04114:0013000000130000001300000013000000130000001300000000000000000000
#01717:0000000013000013
#01712:00001300000000000000000000000013
#01715:00000013
#0171b:13000000000013000000001300000000
#01716:0000130000130000
#01719:00000013000000000000000000000000
#01714:00000000000000130000000000000000
#04715:13
#04714:0000000000000013
#04719:00000000000000000000000000000013
#0471b:0000001300000000
#04712:00000000000000000000001300000000
#04717:00000013000000000000000000000000
#05112:13000000000000000000001300000000
#0511b:00000013000000000000000000000013
#05115:0000000000000013
#05118:0000001300000000
#05116:00000013000000000000000000000000
#05117:0013
#0141b:0013130000131300
#01412:1300001313000000
#01418:0000001300000000
#01415:0013000000130000
#01818:1300001313000000
#0181b:0013000000130000
#01815:0013130000131300
#01812:0000001300000000
#02512:23131313
#02516:0000001300130000
#02617:13131300
#0261b:0013001300001300
#00718:00000013000000000000000000001300
#00715:00000000000000000000000000000013
#00712:0000001300000000
#0071b:00000000000000000000001300000000
#00818:0000000000000013
#00815:000000000000000000000000000000000000000000000000000000000000000000003300000000000000000000130000
#00814:000000000000000000000000000033333300000000000000
#00813:000000000000000000000000003300000000000000000000
#00912:00000013000000000000000000001300
#0091b:00000000000013000000000000000013
#00915:00000000000000000000001300000000
#01012:00000013
#01015:0000000000000013
#01018:00000000000000000000000000000013
#0111b:00000013000000000000000000001300
#01112:00000000000013000000000000000013
#01118:00000000000000000000001300000000
#02016:1300001313000000
#0201b:13000000000000130000000000000000
#02012:00130000
#02019:0000000000131300
#02014:00000000000000000000001300000000
#02010:41
#05218:00000023000000000000000026000000
#05212:00000026
#05215:23
#05213:0000002400000000
#05219:0024
#0125a:14000014
#01252:00000014000000000000000014000000
#01255:0063
#01258:0000005300000000
#03656:0014
#03256:00000000000000280000000000000000
#03258:0000006414000000
#0195b:63
#01952:0053
#0155b:0063
#01552:53
#01652:53
#05255:13
#05258:00000013000000000000000046000000
#05253:0000001400000000
#05259:0014
#05252:00000036
#03952:00000013
#03956:0063
#0385b:6300000000000063
#03857:0053
#03852:0000002300000023000000230000002300000023000000230000000000000000
#03853:53635363536353635363536300000000
#03854:0023000000230000002300000023000000230000002300000000000000000000
#04357:0053
#0435b:00000013
#04252:5300000000000053
#04256:0063
#0425b:0000002300000023000000230000002300000023000000230000000000000000
#0425a:63536353635363536353635300000000
#04259:0023000000230000002300000023000000230000002300000000000000000000
#04052:00130000
#04057:00130000
#04056:00000013
#0405b:00000013
#02452:0013
#0245b:00630000
#02455:00630000
#0505b:63006343
#05052:00000053000000000000000000000000
#05057:0000000000230000
#04956:0063
#04952:00000000000000000000001300000000
#0495b:0000001300000000
#04957:00000053000000000000000000000000
#02158:00000013
#02255:00000013
#03052:0000005200000000
#03056:00000000000000000000002200000000
#0345b:0000006300000000
#03457:00000000000000000000002300000000
#03756:0063
#03752:00000013
#0375b:0000002300000023000000230000002300000023000000230000000000000000
#0375a:63536353635363536353635300000000
#03759:0023000000230000002300000023000000230000002300000000000000000000
#04157:0053
#0415b:00000013
#04152:0000002300000023000000230000002300000023000000230000000000000000
#04153:53635363536353635363536300000000
#04154:0023000000230000002300000023000000230000002300000000000000000000
#04557:0000001300000000
#04556:00000000000000000000001300000000
#0285b:00000043
#02852:00000033
#04757:00000000000000000000001300000000
#04756:0000001300000000
#05156:00000063000000000000000000000000
#05157:0053
#0515b:00000000000000000000001300000000
#05152:0000001300000000
#0465b:00006343
#04657:0000000000230000
#0145b:00630000
#01458:0000002300000000
#01455:0023000000230000
#01452:5353
#01858:5353
#0185b:0023000000230000
#01855:00630000
#01852:0000002300000000
#02552:00000013
#0265b:00000013
#00552:00000000000000000000001300000000
#0075b:00000000000000000000001300000000
#00955:00000000000000000000001300000000
#01158:00000000000000000000001300000000
#00657:00000013
#0105b:00000013
#04852:00005333
#04856:0000000000230000
#0205b:63
#02754:13
#02759:13
#04456:34440000
#04459:0045
#04452:0035
#0013a0:12000000000000000000002200000000
#003340:12000000000000000000002200000000
#005380:13
#0053b0:00000023000000000000000000000000
#005320:0000001300000000
#005350:0023
#005381:0013
#0053b1:00000000000000000000002300000000
#006321:13
#006361:00000023000000000000000000000000
#0063b0:00000013000000000000000000000000
#006370:0000002300000000
#006321:0000001300000000
#006361:0023
#0063b0:0013
#006370:00000023
#007350:13
#007320:00000023000000000000000000000000
#0073b0:0000001300000000
#007380:0023
#007351:0013
#007321:00000000000000000000002300000000
#0083b1:13
#008371:00000023000000000000000000000000
#008320:00000013000000000000000000000000
#008360:0000002300000000
#0083b1:0000001300000000
#008371:0023
#008320:0013
#008330:000000000000000000000000003300000000000000000000
#008340:000000000000000000000000000033333300000000000000
#008350:000000000000000000000000000000000033000000000000
#008360:00000023
#0093b0:13
#009380:00000023000000000000000000000000
#009350:0000001300000000
#009320:0023
#009381:0013
#0093b1:00000000000000000000002300000000
#010361:13
#010321:00000023000000000000000000000000
#010370:00000013000000000000000000000000
#0103b0:0000002300000000
#010361:0000001300000000
#010321:0023
#010370:0013
#0103b0:00000023
#011320:13
#011350:00000023000000000000000000000000
#011380:0000001300000000
#0113b0:0023
#011351:0013
#011321:00000000000000000000002300000000
#012381:0000001300000000
#0123a1:00000024
#012350:0013
#012320:00000024
#014320:13230000
#014350:0053000000000000
#0143b1:00132300
#014381:0000005300000000
#014320:00001323
#014350:0000000000530000
#015320:13
#015360:0000002300000000
#0153b0:0013
#015370:0000000000000023
#016320:13
#016360:00230000
#018380:13230000
#0183b0:0053000000000000
#018351:00132300
#018321:0000005300000000
#018380:00001323
#0183b0:0000000000530000
#0193b0:13
#019370:0000002300000000
#019320:0013
#019360:0000000000000023
#0203b0:13
#020370:00230000
#021320:1300003300330000
#021350:00333323
#0223b0:13333300
#022380:0033003300002300
#023320:13
#023350:0000002300000000
#0233b1:0000001300000000
#023381:00000023
#023320:00000013
#024350:00530000
#024320:0023
#0243b1:00130000
#024381:0023
#0253b1:1300003300330000
#025371:00333323
#026321:13333300
#026361:0033003300002300
#029321:12
#029371:00220000
#0293c1:0000001200000000
#029371:0000000000220000
#029320:0000000000120000
#029370:0000000000000022
#0293c1:0000000000000012
#030371:0022000000000000
#030321:0000001200000000
#030361:00000000000000000000005200000000
#031321:22
#031361:000000000000000000000000000000000000000000000000000000000000000000000000000000000000000000000000000000000000000000000000000000000000000000000000000000000000000000000000000000000000000000000000000000000000000000000000000000000000000000000000000000000000000000000000000000000000000000000000000000000000000000000000000000000000000000000000000000000000000000000000000000000000000000000000000000000000000000000000000000000000000000000000000000000000000000000000000000000000000000000000000000000000000000000000000000000000000000000000000000000000000000000000000000000000000000000000000000000000000000000000000000000000000000000000000000000000000000000000000000000000000000000000000000000000000000000000000000000000000000000000000000000000000000000000000000000000000000000000000000000000000000000000000000000000000000000000000000000000000000000000000000000000000000000000000000000000000000000000000000000000000000000000000000000000000000000000000000000000000000000000000000000000000000000000000000000000000000000000000000000000000000000000000000000000000000000000000000000000000000000000000000000000000000000000000000000000000000000000000000000000000000000000000000000000000000000000000000000000000000000000000000000000000000000000000000000000000000000000000000000000000000000000000000000000000000000000000000000000000000000000000000000000000000000000000000000000000000000000000000000000000000000000000000000000000000000000000000000000000000000000130000000000000000000000000000000000000000000000000000000000000000000000000000000000000000000000000000000000000000000000000000000000000000000000000000000000000000000000000000000000535800000000000000000000000000000000000000000000000000000000000000000000000000000000000000000000000000000000000000000058530000000000000000000000000000000000000000000000000000000000000000000000000000000000000000000000000000000000000000000000000000000000000000000000000000000000000000000000000000000000230000000000000000000000000000000000000000000000000000000000000000000000000000000000000000000000000000000000000000000000000000000000000000000000000000000000000000000000000000000000000000000000000000000000000000000000000000000000000000000000000000000000000000000000000000000000000000000000000000000000000000000000000000000000000000000000000000000000000000000000000000000000000000000000000000000000000000000000000000000000000000000000000000000000000000000000000000000000000000000000000000000000000000000000000000000000000000000000000000000000000000000000000000000000000000000000000000000000000000000000000000000000000000000000000000000000000000000000000000000000000000000000000000000000000000000000000000000000000000000000000000000000000000000000000000000000000000000000000000000000000000000000000000000000000000000000000000000000000000000000000000000000000000000000000000000000000000000000000000000000000000000000000000000000000000000000000000000000000000000000000000000000000000000000000000000000000000000000000000000000000000000000000000000000000000000000000000000000000000000000000000000000000000000000000000000000000000000000000000000000000000000000000000000000000000000000000000000000000000000000000000000000000000000000000000000000000000000000000000000000000000000000000000000000000000000000000000000000000000000000000000000000000000000000000000000000000000000000000000000000000000000000000000000000000000000000000000000000000000000000000000000000000000000000000000000000000000000000000000000000000000000000000000000000000000000000000000000000000000000000000000000000000000000000000000000000000000000000000000000000000000000000000000000000000000000000000000000000000000000000000000000000000000000000000000000000000000000000000000000000000000000000000000000000000000000000000000000000000000000000000000000000000000000000000000000000000000000000000000000000000000000000000000000000000000000000000000000000000000000000
#0313b0:00000000000000000000000000000000000000000000000013000053005300002300000000000000000000000000000000000000000000000000000000000000
#031360:000000000000000000000000000000000000000000000000000000000000000000000000000000000000000000000000000000000000000000000000000000000000000000000000000000000000000000000000000000000000000000000000000000000000000000000000000000000000000000000000000000000000000000000000000000000000000000000000000000000000000000000000000000000000000000000000000000000000000000000000000000000000000000000000000000000000000000000000000000000000000000000000000000000000000000000000000000000000000000000000000000000000000000000000000000000000000000000000000000000000000000000000000000000000000000000000000000000000000000000000000000000000000000000000000000000000000000000000000000000000000000000000000000000000000000000000000000000000000000000000000000000000000000000000000000000000000000000000000000000000000000000000000000000000000000000000000000000000000000000000000000000000000000000000000000000000000000000000000000000000000000000000000000000000000000000000000000000000000000000000000000000000000000000000000000000000000000000000000000000000000000000000000000000000000000000000000000000000000000000000000000000000000000000000000000000000000000000000000000000000000000000000000000000000000000000000000000000000000000000000000000000000000000000000000000000000000000000000000000000000000000000000000000000000000000000000000000000000000000000000000000000000000000000000000000000000000000000000000000000000000000000000000000000000000000000000000000000000000000000000000000000000000000000000000000000000000000000000000000000000000000000000000000000000000000000000000000000000000000000000000000000000000000000000000000000000000000000000000000000000000000580000000000000000000000000000000000000000000000000000000000000000000000000000000000000000000000000000000000005800000000000000000000000000000000000000000000000000000000000000000000000000000000000000000000000000000000000000000000000000000000000000000000000000000000000000000000000000000000000000000000000000000000000000000000000000000000000000000000000000000000000000000000000000000000000000000000000000000000000000000000000000000000000000000000000000000000000000000000000000000000000000000000000000000000000000000000000000000000000000000000000000000000000000000000000000000000000000000000000000000000000000000000000000000000000000000000000000000000000000000000000000000000000000000000000000000000000000000000000000000000000000000000000000000000000000000000000000000000000000000000000000000000000000000000000000000000000000000000000000000000000000000000000000000000000000000000000000000000000000000000000000000000000000000000000000000000000000000000000000000000000000000000000000000000000000000000000000000000000000000000000000000000000000000000000000000000000000000000000000000000000000000000000000000000000000000000000000000000000000000000000000000000000000000000000000000000000000000000000000000000000000000000000000000000000000000000000000000000000000000000000000000000000000000000000000000000000000000000000000000000000000000000000000000000000000000000000000000000000000000000000000000000000000000000000000000000000000000000000000000000000000000000000000000000000000000000000000000000000000000000000000000000000000000000000000000000000000000000000000000000000000000000000000000000000000000000000000000000000000000000000000000000000000000000000000000000000000000000000000000000000000000000000000000000000000000000000000000000000000000000000000000000000000000000000000000000000000000000000000000000000000000000000000000000000000000000000000000000000000000000000000000000000000000000000000000000000000000000000000000000000000000000000000000000000000000000000000000000000000000000000000000000000000000000000000000000000000000000000000000000000000000000000000000000000000000000000000000000000000000000000000000000000000000000000000000000000000000000000000000000000000000000000000000000000000000000000000000000000000
#031320:000000000000000000000000000000000000000000000000000000000000000000000000000000000000000000000000000000000000000000000000000000000000000000000000000000000000000000000000000000000000000000000000000000000000000000000000000000000000000000000000000000000000000000000000000000000000000000000000000000000000000000000000000000000000000000000000000000000000000000000000000000000000000000000000000000000000000000000000000000000000000000000000000000000000000000000000000000000000000000000000000000000000000000000000000000000000000000000000000000000000000000000000000000000000000000000000000000000000000000000000000000000000000000000000000000000000000000000000000000000000000000000000000000000000000000000000000000000000000000000000000000000000000000000000000000000000000000000000000000000000000000000000000000000000000000000000000000000000000000000000000000000000000000000000000000000000000000000000000000000000000000000000000000000000000000000000000000000000000000000000000000000000000000000000000000000000000000000000000000000000000000000000000000000000000000000000000000000000000000000000000000000000000000000000000000000000000000000000000000000000000000000000000000000000000000000000000000000000000000000000160000000000000000000000000000000000000000000000565300000000000000000000000000000000000000000053560000000000000000000000000000000000000000000000565300000000000000000000000000000000000000000053560000000000000000000000000000000000000000000000260000000000000000000000000000000000000000000000000000000000000000000000000000000000000000000000000000000000000000000000000000000000000000000000000000000000000000000000000000000000000000000000000000000000000000000000000000000000000000000000000000000000000000000000000000000000000000000000000000000000000000000000000000000000000000000000000000000000000000000000000000000000000000000000000000000000000000000000000000000000000000000000000000000000000000000000000000000000000000000000
#031380:000000000000000000000000000000000000000000000000000000000000000000000000000000000000000000000000000000000000000000000000000000000000000000000000000000000000000000000000000000000000000000000000000000000000000000000000000000000000000000000000000000000000000000000000000000000000000000000000000000000000000000000000000000000000000000000000000000000000000000000000000000000000000000000000000000000000000000000000000000000000000000000000000000000000000000000000000000000000000000000000000000000000000000000000000000000000000000000000000000000000000000000000000000000000000000000000000000000000000000000000000000000000000000000000000000000000000000000000000000000000000000000000000000000000000000000000000000000000000000000000000000000000000000000000000000000000000000000000000000000000000000000000000000000000000000000000000000000000000000000000000000000000000000000000000000000000000000000000000000000000000000000000000000000000000000000000000000000000000000000000000000000000000000000000000000000000000000000000000000000000000000000000000000000000000000000000000000000000000000000000000000000000000000000000000000000000000000000000000000000000000000000000000000000000000000000000000000000000000000000000000000000000000000000000000000000000000000000000000000000000000000000000000000000000000000000000000000000000000000000000000000000000000000000000000000000000000000000000000000000000000000000000000000000000000000000000000000000000000000000000000000000000000000000000000000000000000000000000000000000000000000000000000000000000000000000000000000000000000000000000000000000000000000000000000000000000000000000000000000000000000000000000000000000000000000000000000000000000000000000000160000000000000000000000000000000000000000000000000000000000000000565400000000000000000000000000000000000000000000000000000000000000000000000000000000000000000000000000000000000000000000000000000000000000000000000000000000000000000000000000
#032380:24
#032320:000000000000000000000000000000000000000000000000000000000000000000000000000000000000000000000000000000000000000000000000000000000000000000000000000000000000000000000000000000000000000000000000000000000000000000000000000000000000000000000000160000000000000000000000000000000000000000000000000000000000000000565400000000000000000000000000000000000000000000000000000000000000000000000000000000000000000000000000000000000000000000000000000000000000000000000000000000000000000000000000240000000000000000000000000000000000000000000000000000000000000000000000000000000000000000000000000000000000000000000000000000000000000000000000000000000000000000000000000000000000000000000000000000000000000000000000000000000000000000000000000000000000000000000000000000000000000000000000000000000000000000000000000000000000000000000000000000000000000000000000000000000000000000000000000000000000000000000000000000000000000000000000000000000000000000000000000000000000000000000000000000000000000000000000000000000000000000000000000000000000000000000000000000000000000000000000000000000000000000000000000000000000000000000000000000000000000000000000000000000000000000000000000000000000000000000000000000000000000000000000000000000000000000000000000000000000000000000000000000000000000000000000000000000000000000000000000000000000000000000000000000000000000000000000000000000000000000000000000000000000000000000000000000000000000000000000000000000000000000000000000000000000000000000000000000000000000000000000000000000000000000000000000000000000000000000000000000000000000000000000000000000000000000000000000000000000000000000000000000000000000000000000000000000000000000000000000000000000000000000000000000000000000000000000000000000000000000000000000000000000000000000000000000000000000000000000000000000000000000000000000000000000000000000000000000000000000000000000000000000000000000000000000000000000000000000000000000000000000000000000
#032380:0000001424000000
#032360:00000000000000000000000000000000000000000000000000000058580000000000000000000000000000000000000000000000000000000000000000000000
#0333b0:13
#033370:00230000
#033320:0000001300000000
#033360:0000000000230000
#0333b1:0000000000130000
#033371:0000000000000023
#033320:0000000000000013
#034360:0023000000000000
#0343b0:0000001300000000
#034370:00000000000000000000005300000000
#0353b0:23
#035320:0000001300000000
#035340:0023
#0353b1:0000001300000000
#035391:0023
#035381:000000000000000000000000000000000000000000000000000000000000000000000000000000000000000000000000000000000000000000000000000000000000000000000000000000000000000000000000000000000000000000000000000000000000000000000000000000000000000000000000000000000000000000000000000000000000000000000000000000000000000000000000000000000000000000000000000000000000000000000000000000000000000000000000000000000000000000000000000000000000000000000000000000000000000000000000000000000000000000000000000000000000000000000000000000000000000000000000000000000000000000000000000000000000000000000000000000000000000000000000000000000000000000000000000000000000000000000000000000000000000000000000000000000000000000000000000000000000000000000000000000000000000000000000000000000000000000000000000000000000000000000000000000000000000000000000000000000000000000000000000000000000000000000000000000000000000000000000000000000000000000000000000000000000000000000000000000000000000000000000000000000000000000000000000000000000000000000000000000000000000000000000000000000000000000000000000000000000000000000000000000000000000000000000000000000000000000000000000000000000000000000000000000000000000000000000000000000000000000000000000000000000000000000000000000000000000000000000000000000000000000000000000000000000000000000000000000000000000000000000000000000000000000000000000000000000000000000000000000000000000000000000000000000000000000000000000000000000000000000000000000000000000000000000000000000000000000000000000000000000000000000000000000000000000000000000000000000000000000000000000000000000000000000000000000000000000000000000000000000000000000000000000000000000000000000000000000000000000000000000145400000000000000000000000000000000000000000000000000000054000000000000000000000000000000000000000000000000000000000000000000000000000000000000000000000000000000000000000000000000005400000000000000000000000000000000000000000000000000000054
#035391:0000000000000000000000000000000000000000000000000000000000530053
#036381:24
#035340:000000000000000000000000000000000000000000000000000000000000000000000000000000000000000000000000000000000000000000000000000000000000000000000000000000000000000000000000000000000000000000000000000000000000000000000000000000000000000000000000000000000000000000000000000000000000000000000000000000000000000000000000000000000000000000000000000000000000000000000000000000000000000000000000000000000000000000000000000000000000000000000000000000000000000000000000000000000000000000000000000000000000000000000000000000000000000000000000000000000000000000000000000000000000000000000000000000000000000000000000000000000000000000000000000000000000000000000000000000000000000000000000000000000000000000000000000000000000000000000000000000000000000000000000000000000000000000000000000000000000000000000000000000000000000000000000000000000000000000000000000000000000000000000000000000000000000000000000000000000000000000000000000000000000000000000000000000000000000000000000000000000000000000000000000000000000000000000000000000000000000000000000000000000000000000000000000000000000000000000000000000000000000000000000000000000000000000000000000000000000000000000000000000000000000000000000000000000000000000000000000000000000000000000000000000000000000000000000000000000000000000000000000000000000000000000000000000000000000000000000000000000000000000000000000000000000000000000000000000000000000000000000000000000000000000000000000000000000000000000000000000000000000000000000000000000000000000000000000000000000000000000000000000000000000000000000000000000000000000000000000000000000000000000000000000000000000000000000000000000000000000000000000000000000000000000000000000000000000000000000145400000000000000000000000000000000000000000000000000000054530000000000000000000000000000000000000000000000000000000000000000000000000000000000000000000000000000000000000000000000535400000000000000000000000000000000000000000000000000000054
#036340:24
#036360:00142400
#0373a0:13535353535353535353535323000000
#037390:0053000000530000005300000053000000530000005300000000000000000000
#0373b0:0000005300000053000000530000005300000053000000530000000000000000
#037361:0013
#037321:00000023
#038331:13535353535353535353535323000000
#038341:0053000000530000005300000053000000530000005300000000000000000000
#038321:0000005300000053000000530000005300000053000000530000000000000000
#0383b0:13
#038370:0000002300000000
#038370:0013
#0383b0:00000023
#0383b0:0000000000000013
#039370:0023000000000000
#039360:0013
#039320:00000023
#041330:13535353535353535353535323000000
#041340:0053000000530000005300000053000000530000005300000000000000000000
#041320:0000005300000053000000530000005300000053000000530000000000000000
#041371:0013
#0413b1:00000023
#0423a1:13535353535353535353535323000000
#042391:0053000000530000005300000053000000530000005300000000000000000000
#0423b1:0000005300000053000000530000005300000053000000530000000000000000
#042320:13
#042360:0000002300000000
#042360:0013
#042320:00000023
#042320:0000000000000013
#043360:0023000000000000
#043370:0013
#0433b0:00000023
#0453b0:00000013000000000000000000000000
#045370:0000002300000000
#045320:0013
#045360:00000000000000000000002300000000
#046370:13
#0463b0:00000023000000000000000000000000
#046361:00000013000000000000000000000000
#046321:0000002300000000
#0463b1:00001323
#046371:0000000000530000
#047321:00000013000000000000000000000000
#047361:0000002300000000
#0473b1:0013
#047371:00000000000000000000002300000000
#048361:13
#048321:00000023000000000000000000000000
#048370:00000013000000000000000000000000
#0483b0:0000002300000000
#048320:00001323
#048330:000000000000000000000000003300000033000000000000
#048340:000000000000003333000000
#048360:0000000000330000
#049370:00000013000000000000000000000000
#0493b0:0000002300000000
#049360:0013
#049320:00000000000000000000002300000000
#0503b0:13
#050370:00000023000000000000000000000000
#050321:00000013000000000000000000000000
#050361:0000002300000000
#0503b1:00001323
#050371:0000000000530000
#051361:00000013000000000000000000000000
#051321:0000002300000000
#051371:0013
#0513b1:00000000000000000000002300000000
#053321:00180000
#057321:00000022
