This file was generated by Ched 2.7.0.0.
#TITLE ""
#ARTIST ""
#DESIGNER ""
#DIFFICULTY 0
#PLAYLEVEL
#SONGID ""
#WAVE ""
#WAVEOFFSET 0
#JACKET ""
#REQUEST "ticks_per_beat 480"
#00002: 4
#BPM01: 152
#00008: 01
#TIL00: ""
#HISPEED 00
#MEASUREHS 00
#00418:1200000000000013
#00415:00000000000000000000000000000013
#00416:00000012000000001200000000000000
#0041a:0000001200000000
#0051b:0000000000000013
#00515:00000000000000000000001300000013
#00512:0000001300000000
#00518:0013
#00510:41
#02415:0013000000001300
#0241b:00000013
#02412:23
#02315:0013000000000000
#0231a:00130000
#02319:0013
#02313:0000000000130000
#02314:0000001300000000
#02318:00000013
#0231b:13
#03614:0000000000140014
#03618:00002614
#0361a:24
#03612:24260000
#03918:00130000
#03915:0000001300000000
#0391b:0013
#03912:0013000000000000
#04016:0014000000140000
#0401a:00141400
#04012:24000024
#00018:0000000000000012
#0011a:00000012000000000000000000001200
#00116:1200001200000000
#00114:00000000000000000000001200000000
#00118:0012
#00216:1200000000000012
#00218:00000012000000001200000000000000
#00214:0000001200000000
#0131b:0000001300000013
#01318:0013000000130000
#01312:00130013
#01315:0013
#02112:00131400
#0211a:00000014
#02116:0000000000140000
#02118:00130000
#0211f:11
#0211b:23
#02115:23
#02212:00130000
#02218:0013000000000000
#0221b:0000001300000000
#02215:23
#01515:13
#01518:0013
#01615:13000013
#0161b:00000013
#0291b:0000130000130000
#02912:0000001300000013
#02918:0000001300000013
#02915:0000130000130000
#0291a:23
#02913:23
#0291f:21
#02718:00131313
#02715:0000001300130013
#02714:23
#0371b:0000001313000000
#03718:13
#03712:13
#03715:0000001313000000
#01118:0000001300000013
#01115:00000000000000000000000000000013
#03812:13
#03815:0000000013000013
#03818:13
#0381b:0000000013000013
#00612:0000001300000000
#00615:0000000000000013
#00618:00000000000000000000000000000013
#01415:1313
#0141b:0013
#01412:00130013
#01418:00130013
#0191b:13
#01912:0013
#0201b:13
#02012:00000013
#02018:00000013
#02010:41
#01818:1313
#01812:0013
#0181b:00130013
#01815:00130013
#0251a:0014
#02512:23000014
#02516:0000000000140000
#02515:00130000
#0251b:00130000
#02518:23
#0261b:00130000
#02615:0013000000000000
#02612:0000001300000000
#02618:13
#02818:2400000000140000
#02814:00000024000000000000140000000000
#02812:0000002414002400
#0281a:0000002414002400
#02819:00000000000000000000003400000000
#02813:00000000000000000000003400000000
#0301b:0000001300000000
#03018:00001313
#03015:0000000000130013
#03010:41
#03112:1300002323000000
#03118:0000002323000000
#0311b:0000000000000023
#03115:0000000000000023
#03312:2400140000140000
#0331a:2400001400000014
#03315:0000000000000014
#03318:00140000
#03317:0000000000140000
#03314:0000001400000000
#03412:0000001400001400
#03416:0000000014000014
#0341a:0000000000140000
#0351a:1400002424000024
#03512:0000002424000024
#04315:00130000
#04318:0000001300000000
#04312:0013
#0431b:0013000000000000
#04310:41
#0421b:13
#04218:0000000013000013
#04215:13
#04212:0000000013000013
#00712:0000000000000013
#00718:00000000000000000000001300000013
#0071b:0000001300000000
#00715:0013
#0081b:0000001300000000
#00818:0000000000000013
#00812:00000000000000000000000000000013
#00915:0000001300000013
#00918:00000000000000000000000000000013
#01015:0000001300000013
#0101b:00000000000000000000000000000013
#01212:0000001300002400
#0121b:0000001300000000
#01218:00000000000000000013000000000000
#01215:00000000000000000013000000000000
#0121a:00000024
#01219:0033
#01214:0033
#01210:41
#04418:2400000000000013
#04415:00000000000000000000000000000013
#04419:0025
#04414:00240000
#04412:0025
#0451b:0000000000000013
#04515:00000000000000000000001300000013
#04512:0000001300000000
#04518:0013
#04612:0000001300000000
#04615:0000000000000013
#04618:00000000000000000000000000000013
#0461b:0013
#04712:0000000000000013
#04718:00000000000000000000001300000013
#0471b:0000001300000000
#04715:0013
#0481b:0000001300000000
#04818:0000000000000013
#04812:00000000000000001300000000000013
#04915:0000001300000013
#04918:00000000000000000000000000000013
#05015:0000001300000013
#0501b:00000000000000000000000000000013
#05018:0013
#05010:41
#05118:00000000000013000000000000000013
#05115:0000000000000013
#04112:0000001313000000
#04115:13
#0411b:13
#04118:0000001313000000
#00314:00000012000000000000000000001200
#00318:1200001200000000
#0031a:00000000000000000000001200000000
#00316:0012
#01712:0000001300000013
#01715:0013000000130000
#0171b:00130013
#01718:0013
#03212:0000002323000000
#0321b:2300002323000000
#03215:23
#05219:00000025
#05212:2300002424002500
#0521b:00000023000000000000000000000000
#0521a:0000002424000000
#0405a:00140000
#04052:00000014
#0215a:00000014
#01555:63
#01558:0053
#01655:63
#0395b:0063
#03958:00000013
#0375b:0063
#03758:53000013
#03752:53000013
#03755:0063
#03852:53
#03855:0063
#03858:53
#0385b:0063
#02754:13
#0195b:63
#01952:0053
#0205b:63
#02252:00000013
#0245b:0013
#02552:00000014
#0265b:00000013
#02854:0000000000240000
#02858:0000000000240000
#0285a:00006444
#02852:00005434
#02958:0000000000000023
#0295b:0000000000630000
#02955:0000000000630000
#02952:0000000000000023
#03255:63
#0325b:6363
#03252:0053
#03152:0053
#03158:0053
#03352:0000000000540000
#03355:0000000000000024
#03357:0000000000540000
#0335a:0000000000000024
#03552:0054
#0355a:0064
#03658:0016
#04352:0053
#04355:00000013
#0425b:63
#04258:0053
#04255:63
#04252:0053
#04454:00140000
#04458:14
#04459:0015
#04452:0015
#01255:00000000000000000023000000000000
#01258:00000000000000000023000000000000
#0125b:0000006300000000
#01252:0000005300003400
#0125a:00000044
#05058:0053
#04852:0053
#0465b:0063
#05259:00000045
#05252:00000035
#04152:0053
#04155:63000013
#0415b:63000013
#04158:0053
#0053b0:13000023000000000000000000000000
#006380:13000023000000000000000000000000
#0063b0:0013
#006380:00000023
#007320:13000023000000000000000000000000
#008350:13000023000000000000000000000000
#008320:0013
#008350:00000023
#009380:13000023000000000000000000000000
#0093b0:00000000000000001300002300000000
#010320:13000023000000000000000000000000
#010380:0013
#0103b0:00000023
#011350:13000023000000000000000000000000
#011320:00000000000000001300002300000000
#0123b0:13000033000033000000000000000000
#012390:0033
#012380:00000000000000000053000000000000
#0123a0:00000024
#012321:00000013000033000000000024000000
#012341:0033
#012351:00000000000000000053000000000000
#015351:13
#015321:0000002300000000
#015381:0013
#0153b1:0000000000000023
#016351:13
#016321:0023
#0193b1:13
#019381:0000002300000000
#019321:0013
#019351:0000000000000023
#0203b1:13
#020381:0023
#022351:0013
#022321:00000023
#024381:00130000
#0243b1:0023
#026381:0013
#0263b1:00000023
#0283a1:00001424
#028381:0000000000340000
#028391:00000000000000000000003400000000
#028320:00001424
#028340:0000000000340000
#028330:00000000000000000000003400000000
#0293b0:0000000000130000
#029380:0000000000000033
#0303b0:0023000000000000
#029351:0000000000130000
#029321:0000000000000033
#030351:0023000000000000
#031381:0013
#0313b1:00000023
#031320:0013
#031350:00000023
#0323b0:13
#032380:00230000
#032351:13
#032321:00230000
#0323b1:0013
#032381:00000023
#032320:0013
#032350:00000023
#033320:0000000000140000
#033350:0000000000000034
#034320:0024000000000000
#033371:0000000000140000
#0333a1:0000000000000034
#034371:0024000000000000
#035321:0014
#035341:00000024
#0353a0:0014
#035380:00000024
#037380:13
#0373b0:00230000
#037321:13
#037351:00230000
#0373b1:0013
#037381:00000023
#037350:0013
#037320:00000023
#038320:13000023
#038350:0000003333000000
#038381:13000023
#0383b1:0000003333000000
#0393b1:0013
#039381:00000023
#041351:13
#041321:00230000
#0413b0:13
#041380:00230000
#041320:0013
#041350:00000023
#041381:0013
#0413b1:00000023
#0423b1:13000023
#042381:0000003333000000
#042350:13000023
#042320:0000003333000000
#043320:0013
#043350:00000023
#0453b0:13
#045380:00000023000000000000000000000000
#046380:13
#0463b0:00000023000000000000000000000000
#0463b0:0013
#046380:00000023
#047320:13
#047350:00000023000000000000000000000000
#048350:13
#048320:00000023000000000000000000000000
#048320:0013
#048350:00000023
#049380:13
#0493b0:00000023000000000000000000000000
#0493b0:0013
#049380:00000000000000000000002300000000
#050320:13
#050350:00000023000000000000000000000000
#050380:0013
#0503b0:00000023
#051350:13
#051320:00000023000000000000000000000000
#051320:0013
#051350:00000000000000000000002300000000
#053320:00160000
#057320:00000022
