This file was generated by Ched 2.7.0.0.
#TITLE ""
#ARTIST ""
#DESIGNER ""
#DIFFICULTY 0
#PLAYLEVEL
#SONGID ""
#WAVE ""
#WAVEOFFSET 0
#JACKET ""
#REQUEST "ticks_per_beat 480"
#00002: 4
#BPM01: 152
#00008: 01
#TIL00: ""
#HISPEED 00
#MEASUREHS 00
#0011a:14141400
#00212:14141400
#00318:14141400
#00414:14141400
#0051a:1414
#00514:00140000
#00510:41
#00614:1414
#0061a:00140000
#00718:1414
#00712:00140000
#00812:1414
#00818:00140000
#0091a:14
#00918:0014
#00914:00140000
#01012:14
#01014:0014
#01018:00140000
#01118:14
#0111a:0014
#01114:00140000
#0131a:1414
#01314:00140014
#01418:1414
#01412:00140014
#0151a:1400000000000034
#01517:0000003414000000
#0161a:14
#01712:1414
#01718:00140014
#01814:1414
#0181a:00140014
#02118:00140014
#02114:0014
#02112:14
#0211a:14
#0211f:11
#02214:00140014
#02218:0014
#02212:14
#0221a:14
#0231a:14
#02312:14
#02318:00140014
#02314:0014
#02414:1414
#02418:00140000
#02514:00140014
#02518:0014
#0251a:14
#02512:14
#02618:00140014
#02614:0014
#0261a:14
#02612:14
#0271a:14
#02712:14
#02714:00141414
#02718:0000001400140014
#02912:00160000
#02918:26001414
#02914:0000000000140000
#0291f:21
#03012:16
#03018:0000160000140000
#03014:00001414
#03010:41
#0311a:1400001400000000
#03118:0000000000000014
#03112:1400001400000000
#03114:0000000000000014
#03119:0034
#03113:0034
#0321a:0000001400000000
#03212:0000001400000000
#03219:3434
#03213:3434
#03318:0000160000140000
#03314:00001414
#03312:26
#03418:16001414
#03412:00160000
#03414:0000000000140000
#03512:1400001400000000
#03514:0000000000000014
#0351a:1400001400000000
#03518:0000000000000014
#03513:0034
#03519:0034
#0371a:00140000
#03717:0014
#03719:0000003400000000
#0381a:14
#03913:1414
#03919:00140014
#04012:14
#04016:00140014
#0401a:0014
#04112:00140000
#04115:0014
#04113:0000003400000000
#04212:14
#04319:1414
#04313:00140014
#04310:41
#04418:1414
#04414:00140000
#0441a:00140000
#04412:1414
#0451a:1414
#04514:00140014
#04618:1414
#04612:00140000
#04712:1414
#04718:00140014
#04814:1414
#0481a:00140000
#0491a:14
#04914:00140000
#04918:0014
#04912:00000014
#05018:14
#05014:00140000
#0501a:0014
#05010:41
#05112:14
#05118:00140000
#05114:0014
#0511a:00000014
#01912:1400000000000034
#01915:0000003414000000
#02012:14
#02010:41
#01212:00000024
#01210:41
#02814:00000024
#05219:00000024
#05213:00000024
#03613:34
#03619:34
#01252:00000014
#0155a:64
#01557:0054
#0165a:64
#02854:00000014
#0315a:0000006400000000
#03158:0000000000000054
#03152:0000005400000000
#03154:0000000000000064
#0325a:0000006400000000
#03252:0000005400000000
#03552:0000005400000000
#03554:0000000000000064
#0355a:0000006400000000
#03558:0000000000000054
#03757:0024
#0375a:00640000
#0385a:64
#04152:00540000
#04155:0024
#04252:54
#05259:00000014
#05253:00000014
#01952:54
#01955:0064
#02052:54
#04452:0014
#04458:0014
#012320:14000034000034003400000024000000
#0153a0:1400000000000034
#015370:0000003434000000
#0163a0:34
#016370:0024
#019320:1400000000000034
#019350:0000003434000000
#020320:34
#020350:0024
#028340:14000034000034003400000024000000
#0313a0:0000001400000000
#031390:0034
#031380:0000000000000034
#032390:3434
#0323a0:0000003400000000
#032380:00000024
#031321:0000001400000000
#031331:0034
#031341:0000000000000034
#032331:3434
#032321:0000003400000000
#032341:00000024
#035321:0000001400000000
#035331:0034
#035341:0000000000000034
#036331:34
#036321:00342400
#0353a0:0000001400000000
#035390:0034
#035380:0000000000000034
#036390:34
#0363a0:00342400
#0373a0:14340034
#037390:0000003400000000
#037370:0034
#0383a0:34
#038370:0024
#041320:14340034
#041330:0000003400000000
#041350:0034
#042320:34
#042350:0024
#052390:14000034000034003400000024000000
#052331:14000034000034003400000024000000
#053321:001c0000
#057361:00000024
