This file was generated by Ched 2.6.2.0.
#TITLE "easy"
#ARTIST ""
#DESIGNER ""
#DIFFICULTY 0
#PLAYLEVEL
#SONGID ""
#WAVE ""
#WAVEOFFSET 0
#JACKET ""
#REQUEST "ticks_per_beat 480"
#00002: 4
#BPM01: 128
#00008: 01
#TIL00: ""
#HISPEED 00
#MEASUREHS 00
#00119:14
#00213:14
#00319:14
#00413:14
#0091a:14
#00910:41
#01114:14
#01214:14
#0171a:14
#01814:14
#0191a:14
#02014:14
#02519:14
#02713:14
#02619:14
#02813:14
#03318:14
#0331f:11
#03414:14
#0511a:14
#05318:14
#05310:41
#05412:14
#0101a:14
#02118:14
#02212:14
#02210:41
#02318:14
#02412:14
#02919:14
#02910:41
#03113:14
#03019:14
#03213:14
#03714:14
#03818:14
#04318:0016
#04312:26
#0431f:21
#04412:16
#04418:0016
#04410:41
#04712:0016
#04718:26
#04818:16
#04812:0016
#05214:14
#0551a:14
#05718:14
#05812:14
#05614:14
#05919:24
#05913:24
#01510:41
#005390:14
#006390:24
#007330:14
#008330:24
#013380:14
#014380:24
#015340:14
#016340:24
#035380:14
#036380:24
#039340:14
#040340:24
#041390:1400003400003400
#042390:0024
#045330:14342400
#046390:14342400
#049390:14342400
#050330:14342400
