This file was generated by Ched 2.6.2.0.
#TITLE "expert"
#ARTIST ""
#DESIGNER ""
#DIFFICULTY 0
#PLAYLEVEL
#SONGID ""
#WAVE ""
#WAVEOFFSET 0
#JACKET ""
#REQUEST "ticks_per_beat 480"
#00002: 4
#BPM01: 128
#00008: 01
#TIL00: ""
#HISPEED 00
#MEASUREHS 00
#0001c:0000000000120000
#00019:00000012
#00015:0000000000000022
#0011b:0000000000130000
#00118:00000013
#00115:0000000000000013
#00117:13
#00116:0000001200000000
#00112:22
#0021b:1300001312000000
#00215:0013000000120000
#00218:00130000
#00219:00000012
#00213:0000000000000012
#00212:1300001300000000
#0051b:0000000000130000
#00518:00000013
#00515:0000000000000013
#00512:1200000000130000
#00516:0000001200000000
#00517:13
#00618:1300000013000013
#00615:0013001300000000
#00612:0000130000001313
#0061b:0000000000130000
#00719:0000001200120000
#00715:0012
#00712:0000001200120014
#00912:0000001300130000
#00915:00000012
#00919:0000000000000012
#00918:0000001300130000
#0091b:23
#00910:41
#01015:13121213
#01019:0012000000120012
#01012:0000001300000000
#0101b:13000013
#01018:0000001300000000
#01115:1300001300130000
#0111b:1300001300130000
#01118:00130012
#01116:0000000000000012
#01218:13000000120000001300001300001300
#01216:0012000000000000
#0121b:0000001300000000
#01215:0000001300001300
#01212:1313
#0131b:13
#01318:0000001300130012
#01315:00000012
#01316:13
#01312:0000131300130000
#01515:1300000000000013
#01517:0000001300000000
#01519:0013
#0151b:1300000000130013
#01512:0000001300000000
#01514:0013
#01516:0000000000130000
#01510:41
#01618:1300130013130023
#0161b:0000001300001300
#01615:00001300000000000013000000130000
#01612:13000000130000000000000000000013
#0171b:2313000000000000
#01716:0013130000000013
#01712:0000000013130000
#0181b:13001313
#01816:13
#01812:00130013
#01818:0000000000130000
#01815:0000000000130013
#01817:00230000
#01819:0000002300000000
#0241b:0000002300130000
#02418:00230013
#02412:13
#02417:13
#02415:0013000000000023
#02416:0000001300000000
#0311b:0000001300000000
#03119:0013
#03117:0000000000130000
#03112:0000000000130013
#03116:0000001300000000
#03114:0013
#03218:0000130000130000
#0321a:0000000000000013
#03212:0013000000000000
#03213:0000130000000013
#03214:0000001300000000
#03215:0013
#03219:00000013
#0331b:13001313
#03312:1300001300001300
#03315:0013
#0331f:11
#0341b:00131300
#03418:0000001300000000
#03417:0000000000001313
#03412:1300001300130000
#03517:1300000000000013
#0351b:0000001300000000
#03512:1300000000130013
#03516:00130000
#0361b:1300000000000013
#03619:0013000000000000
#03618:0000131300000000
#03617:0000000000130000
#03612:00000013
#03616:13
#03718:13231323
#03715:0013000000130013
#0371b:0000001300000013
#03712:23132313
#03818:13130013
#03812:2300001300130013
#0381b:0000001300130013
#03815:00131313
#04018:0000001300001300
#0401b:0013000013000013
#04012:0013000013000013
#04015:0000130000130000
#04518:0013000000130000
#04515:00131300
#0451b:0000001300001300
#04512:1300001300001313
#04618:00130000
#04615:0000001300000000
#04619:0000000000000013
#04616:0013000000000000
#0461b:0013
#04617:00000013
#04614:0000000000000013
#04918:0013000000130000
#04915:00131300
#0491b:1300001300001313
#04912:0000001300001300
#04916:0000000000000013
#05118:0013000000000000
#05112:13131313
#0511b:13130000
#05117:0000000000130000
#0521b:1313000013000000
#05212:13131313
#05217:0000232300130000
#05819:0000000000120022
#05815:00000012
#05812:13
#05817:1313000000000000
#0581b:00130000
#05816:0000232300000000
#02515:0013000000000000
#02518:00130000
#0251b:0000001300000000
#02517:0000000000131300
#02512:2300000000000013
#0261b:0000131313000000
#02612:13000013
#02617:13000013
#02619:0013000000000000
#0271b:0000001300000013
#02712:13
#02716:00000013000000000000130013000000
#03912:0000000000130000
#03914:00000013
#03916:0000000000000013
#03918:13
#03915:13
#03917:0000000000130000
#03919:00000013
#0391b:0000000000000013
#04112:1300001300001300
#0411b:1300001300001300
#04116:0000140000140000
#04214:1313131313000000
#04219:1313131313000033
#04212:00000013
#04218:00000000000000000000000000330000
#0421a:00000000000000000000000000000033
#05012:0013130000000000
#05017:00130000
#0501b:0000000013131300
#05015:00000000000000000000000000130000
#05018:0000000000000013
#00312:0000000000130000
#00315:00000013
#00318:0000001200000013
#0031c:12
#00316:13
#00412:1300001300000000
#00418:0013000000000000
#00415:00130012
#0041b:1300001300000012
#00413:0012
#00419:0000000000120000
#01912:0013000000000000
#01917:0013130000000013
#0191b:0000000013130000
#02012:13001313
#02018:0000000000130013
#02017:13
#0201b:00130013
#02015:0000000000130000
#02016:00230000
#02014:0000002300000000
#0211b:0013130000000013
#02116:0013130000000000
#02112:0000000013130000
#02117:0000000000130000
#0221b:1300230013130000
#02218:0013002300001300
#02215:13130000
#02212:0013001300001300
#02216:0000000000130013
#02210:41
#03018:00130000
#0301b:0000001313000013
#03012:13
#03015:0013000013000000
#03017:00000013
#03016:0000000000000013
#02917:00000013000000000000130013000000
#02912:1300001300000013
#0291b:13
#02910:41
#04315:00000000000000000000001300000000
#04312:2300001300000000
#04319:0000000000000013
#04318:0000000000131300
#0431b:2300001300000000
#0431f:21
#04418:00000000000000000000001300000000
#0441b:2300001300000000
#04414:0000000000000013
#04415:0000000000131300
#04412:2300001300000000
#04410:41
#04718:00000000000000000000001300000000
#0471b:2300001300000000
#04714:0000000000000013
#04715:0000000000131300
#04712:2300001300000000
#04815:00000000000000000000001300000000
#04812:2300001300000000
#04819:0000000000000013
#04818:0000000000131300
#0481b:2300001300000000
#05315:0013000000000000
#0531b:13131313
#05312:13130000
#05316:0000000000130000
#05310:41
#05412:1313000013000000
#0541b:13131313
#05416:0000232300130000
#05518:0013000000000000
#05512:1300000013130000
#05515:00130000
#0551b:13130013
#0561b:13001313
#05616:1313000000000000
#05612:00131313
#05617:0000232300130000
#05712:13130013
#05717:13
#05715:0013000000000000
#05718:00130000
#0571b:0000000013130000
#02312:0013130000000013
#02317:0013130000000000
#0231b:0000000013130000
#02316:0000000000130000
#01412:00000013
#01419:0000000000000012
#01415:1300000000000012
#0081b:0000131300131323
#00813:0034000000000034
#00814:00340034
#00815:0000003400340000
#02812:0000131313000000
#0281b:13000013
#02816:13
#02814:0013000000000000
#02817:0013
#05915:22
#00157:53
#01155:63
#0135b:53
#01555:5300000000000053
#0155b:0000000000000053
#01658:23
#01655:0053000000000000
#01652:23230000
#01856:53
#01852:00230000
#0185b:00000023
#01858:0000000000530000
#02057:63
#0205b:00230000
#02055:0000000000630000
#02052:00000023
#02255:53530000
#02252:0023002300000000
#0225b:0000000000630000
#02258:00000023
#02152:0000000000530000
#0215b:00230000
#02752:53
#02756:00000023000000000000000000000000
#0335b:53000053
#03452:53
#03557:53
#0355b:0000005300000000
#03656:53
#03858:00530053
#03855:00005353
#0385b:0000002300000023
#03852:0000000000230023
#03955:53
#03958:53
#0435b:43
#04352:3300006300000000
#04355:00000000000000000000002300000000
#0475b:4300005300000000
#04752:33
#04758:00000000000000000000002300000000
#04452:33
#0445b:4300005300000000
#04458:00000000000000000000002300000000
#04855:00000000000000000000002300000000
#04852:3300006300000000
#0485b:43
#0495b:0000000000000053
#05052:00530000
#0515b:00530000
#05157:0000000000530000
#05257:0000000000530000
#05352:00630000
#05356:0000000000630000
#05456:0000000000630000
#0555b:00530000
#05552:0000000000530000
#05657:0000000000530000
#0565b:00000023
#05752:00630000
#0575b:0000000000630000
#00356:63
#00557:53
#02352:00230000
#0235b:0000000000630000
#02957:00000023000000000000000000000000
#0295b:63
#00658:0053
#0065b:0000000000230000
#04259:0013
#04254:0013
#0265b:0053
#02652:53
#02657:00000023
#02852:0063
#0285b:63
#0095b:53
#03055:0053
#0415b:1300001300001300
#04152:1300001300001300
#001370:13
#0013b0:0000002300000000
#003360:13
#003320:0000002300000000
#005370:13
#0053b0:0000002300000000
#006380:00001323
#0063b0:0000000000530000
#0073b0:13230000
#007351:13230000
#007381:0000000000000013
#0083b1:0023000000000000
#008320:14
#008330:0034000000000034
#008340:00340034
#008350:0000003400340000
#008360:0034
#009320:24
#0093b1:13
#009371:00230000
#011351:13
#011321:00230000
#0133b1:13
#013371:00230000
#0143b1:13230000
#014350:00132300
#014381:00001323
#015351:13
#015321:00230000
#0153b1:0000000000000013
#016381:53
#0163b1:0023000000000000
#015350:0000000000000013
#016320:53530000
#016350:0053002300000000
#0173b0:00130000
#017370:0023
#017370:0000000000130000
#0173b0:0000000000000023
#018360:1323
#018320:00530000
#018380:0000000000130023
#0183b0:00000053
#019320:00130000
#019360:0023
#019360:0000000000130000
#019320:0000000000000023
#020370:1323
#0203b0:00530000
#020350:0000000000130023
#020320:00000053
#0213b0:00130000
#021370:0023
#021320:0000000000130000
#021360:0000000000000023
#022350:13532300
#022320:0053005300000000
#0223b0:0000000000130023
#022380:00000053
#023320:00130000
#023360:0023
#0233b0:0000000000130000
#023370:0000000000000023
#025320:0000000000132300
#026320:13
#026360:0023
#0263b1:0013
#026371:00000053
#0273b1:23
#027320:1300002300000000
#027360:00000053000000000000000000000000
#0273b0:0000000000132300
#0283b0:13
#028370:0000002300000000
#028320:0013
#028360:00000023
#0293b0:1300002300000000
#029370:00000053000000000000000000000000
#029320:0000000000132300
#030350:0013
#030320:00000023
#031320:13230000
#031371:13230000
#0313b1:0000000000000013
#0323b1:0023000000000000
#032381:0000001323000000
#0333b1:13
#033381:0000002300000000
#0333b1:00000013
#034381:23
#034320:13
#034350:00230000
#035370:13
#0353b0:00230000
#0353b0:0000001300000000
#035380:0000000000230000
#036360:13
#036320:0000000000230000
#038380:00132300
#0383b0:0000005300000000
#038351:00001333
#038321:0000000000530053
#039351:33
#039321:0000002300000000
#038380:00000013
#0383b0:0000000000000053
#039380:33
#0393b0:0000002300000000
#042370:00000013
#042380:00000000000000000000000000330000
#042390:0000000000000033
#0423a0:00000000000000000000000000000033
#0433b0:23
#043320:0000001300000000
#043350:00000000000000000000005300000000
#044320:23
#0443b0:0000001300000000
#044380:00000000000000000000005300000000
#0453b0:23
#0453b0:0000000000000013
#0463b0:0023000000000000
#046320:00001323
#0473b0:0000001300000000
#047380:00000000000000000000005300000000
#0483b0:23
#048320:0000001300000000
#048350:00000000000000000000005300000000
#049320:23
#0493b0:0000000000000013
#050370:0023000000000000
#050320:00130000
#050350:00000023
#0513b0:00130000
#051370:0023
#051370:0000000000130000
#0513b0:0000000000000023
#052370:0000000000130000
#0523b0:0000000000000023
#053320:00130000
#053360:0023
#053360:0000000000130000
#053320:0000000000000023
#054360:0000000000130000
#054320:0000000000000023
#0553b0:00130000
#055370:0023
#055320:0000000000130000
#055360:0000000000000023
#056370:0000000000130023
#0563b0:00000053
#057320:00130000
#057360:0023
#0573b0:0000000000130000
#057370:0000000000000023
