This file was generated by Ched 2.7.0.0.
#TITLE ""
#ARTIST ""
#DESIGNER ""
#DIFFICULTY 0
#PLAYLEVEL
#SONGID ""
#WAVE ""
#WAVEOFFSET 0
#JACKET ""
#REQUEST "ticks_per_beat 480"
#00002: 4
#BPM01: 128
#00008: 01
#TIL00: ""
#HISPEED 00
#MEASUREHS 00
#00018:0000000000130023
#00015:00000013
#0011b:0000000000130000
#00115:23000013
#00118:0000000000000013
#00218:0013000000130000
#00215:00130013
#0021b:0000001300000013
#00212:1313
#00718:0000001300130000
#00715:0013
#01318:13000013
#01315:0000000000000013
#01312:0000000000130000
#01515:1313
#0151b:0000001300000000
#01518:0000000000130000
#01510:41
#01618:0000130000000023
#01615:0000001300001300
#0161b:0000000000130000
#01812:1313
#01818:0013002300130000
#01815:00230000
#02412:0000000000130000
#02418:00000013
#0241b:13230000
#02415:0013002300000023
#0331b:13000013
#03315:0013
#0331f:11
#03412:13001313
#03415:0000000000000013
#03418:0000001300000000
#03518:13
#03515:0000001300000013
#0361b:0000000000000013
#03612:0000000000000013
#03618:13
#03718:1300000000130000
#03715:0013000013000000
#0371b:0000131300001313
#03712:0000131300001313
#0381b:13130013
#03812:1313
#03815:00130013
#03818:0013
#0401b:0000000013000013
#04012:0013000000000013
#04015:00130013
#04018:0000001300130000
#04518:0013000000130000
#04515:00131300
#04512:13000013
#0451b:0000001300000000
#04618:00130000
#04615:0000001300000013
#05115:0013000000000000
#05112:1300000000130000
#0511b:13130000
#0521b:1313
#05218:0013002300000000
#05215:1300230013130000
#00812:00130000
#00818:0000001300001300
#00815:0000000000130023
#03912:1300000000130000
#03915:00000013
#03918:1300000000130000
#0391b:00000013
#04112:1300001300000000
#04115:0000000000130000
#0411b:13000013
#04118:00130000
#04214:13131300
#04219:0013001300000000
#01718:0013000000000000
#01712:2313000000000000
#02615:00001300000000000000001300001300
#02618:13000013
#0261b:00131300
#02612:0000001300000000
#02818:00130013
#02815:0000001300000013
#0281b:1300000013000013
#02812:0013000000001300
#02715:0000000000130013
#02718:13000013
#0291b:13
#02915:13000013
#02918:0000000000130013
#02910:41
#04318:0000000000000013
#04315:0000001300001300
#04312:0000000000130000
#0431b:0000001300000000
#04314:23
#04319:23
#0431f:21
#05015:00130000
#05018:0013000000000000
#00315:1300000000000013
#00312:0000000000130000
#00318:00000013
#00412:1300000013000013
#00415:00130000
#00418:0013001300001300
#0041b:1313
#00518:1300000000000013
#0051b:0000000000130000
#00515:00000013
#00615:00130000
#0061b:0000001300000000
#00612:1313
#00618:0013000000000013
#01115:1300000000000013
#0111b:0000000000130000
#01118:00000013
#01215:00001300000000000000001300001300
#01218:00131313
#0121b:1300001300000000
#01212:13
#0201b:1313
#02015:0013002300130000
#02018:00230000
#01915:0013000000000000
#0191b:0013000000000000
#0221b:13
#02212:0013002300000000
#02215:0000000000130000
#02218:00231300
#02210:41
#02115:0013000000000000
#0211b:0013000000000000
#02318:0013000000000000
#02312:0013000000000000
#0251b:2300001300000000
#02515:0000001300000000
#02512:0000000000131313
#02518:0000000000131300
#03015:00130013
#03018:0000001300000013
#03012:1300000013000013
#0301b:0013000000001300
#03112:1300000000000013
#03118:1300001300130013
#03115:0013
#03218:00130000
#03215:0000001300000013
#04415:0000000000000013
#04418:0000001300001300
#0441b:2300000000130000
#04412:2300001300000000
#04410:41
#04915:0013000000130000
#04918:00131300
#0491b:13000013
#04912:0000001300000013
#04715:0000000000000013
#04718:0000001300001300
#0471b:2300000000130000
#04712:2300001300000000
#04818:0000000000000013
#04815:0000001300001300
#04812:2300000000130000
#0481b:2300001300000000
#05318:0013000000000000
#05312:00130000
#0531b:0000000000130000
#05310:41
#05515:0013000000130000
#05518:00130000
#0561b:1300000013130000
#05618:0013002300000000
#05612:1300000013130000
#05615:00230000
#05718:0013000000130000
#05715:00130000
#01018:0013000000130013
#01012:1300001300000000
#0101b:13000013
#01015:00131300
#00918:2300000000000013
#00915:00000013
#00912:0000000000130000
#00910:41
#01415:13
#01412:0000001300000000
#0141b:13
#01418:0000001300000000
#01414:0033000000330000
#01413:00333300
#0141a:0033000000330000
#01419:00333300
#05412:1313
#05415:0013002300000000
#05418:1300230013130000
#05812:13
#05815:0013002300001300
#0581b:13
#05818:0000230000130023
#05915:23
#01555:53
#01858:0000000000630000
#0295b:63
#02955:63
#0335b:53
#03452:53
#03558:53
#03555:0000005300000000
#05055:00630000
#0515b:00530000
#05152:0000000000530000
#05255:0000000000630000
#00355:63
#00558:53
#01155:63
#01358:53
#02055:0000000000530000
#02255:0000000000530000
#02758:63
#03158:5300000000000053
#03152:5300000000000053
#03255:0000005300000000
#03855:00530053
#03852:0053
#0385b:00530053
#03858:0053
#03952:53
#03958:53
#04359:13
#04354:13
#04452:13
#0445b:13
#0475b:13
#04752:13
#04852:13
#0485b:13
#05352:00630000
#0535b:0000000000630000
#05558:00530000
#05555:0000000000530000
#05652:0000000000630000
#05755:00630000
#05758:0000000000630000
#00155:53
#00958:63
#0255b:53
#00652:0053
#01455:53
#01452:0000002300000000
#0145b:53
#01458:0000002300000000
#03658:63
#05458:0000000000530000
#04152:13
#0415b:13
#001350:13
#001320:0000002300000000
#003350:13
#003320:0000002300000000
#005380:13
#0053b0:0000002300000000
#006320:0013
#006350:00000023
#007350:13230000
#007350:0000000000000013
#008320:0023000000000000
#0073b1:0000000000000013
#008381:0023000000000000
#009381:13
#0093b1:0000002300000000
#011351:13
#011321:0000002300000000
#013381:13
#0133b1:0000002300000000
#014351:1300000000003323
#014341:0033000000330000
#014331:00333300
#014321:0000003300000000
#0143b0:1300000000003323
#0143a0:0033000000330000
#014390:00333300
#014380:0000003300000000
#015350:13
#015320:00230000
#015380:0000000000000013
#0163b0:0023000000000000
#015321:0000000000000013
#016351:0023000000000000
#017321:00130000
#017351:0023
#0173b1:0000000000130000
#017381:0000000000000023
#018381:0000000000130000
#0183b1:0000000000000023
#0193b1:00130000
#019381:0023
#019321:0000000000130000
#019351:0000000000000023
#020351:0000000000130000
#020321:0000000000000023
#021351:00130000
#021321:0023
#021381:0000000000130000
#0213b1:0000000000000023
#022351:0000000000130000
#022321:0000000000000023
#023381:00130000
#0233b1:0023
#023351:0000000000130000
#023321:0000000000000023
#0253b1:13
#025381:00230000
#027381:13
#0273b1:0000002300000000
#0293b1:13
#029381:0000002300000000
#029350:13
#029320:0000002300000000
#031320:13
#031350:00230000
#031381:13
#0313b1:00230000
#031381:0000000000000013
#0323b1:0023000000000000
#031320:0000000000000013
#032350:0023000000000000
#032350:0000001300000000
#032320:0000000000230000
#0333b0:13
#033380:0000002300000000
#034320:13
#034350:00230000
#035380:13
#0353b0:00230000
#035350:0000001300000000
#035320:0000000000230000
#036380:13
#0363b0:0000000000230000
#038350:00130033
#038320:0033
#039320:33
#039350:0000002300000000
#0383b1:00130033
#038381:0033
#039381:33
#0393b1:0000002300000000
#042391:00000000000000000000000013333333
#043391:23
#042340:00000000000000000000000013333333
#043340:23
#045320:0000000000000013
#046350:0023000000000000
#0463b0:0013
#046380:00000023
#050350:00130000
#050320:00000023
#0513b0:00130000
#051380:0023
#051320:0000000000130000
#051350:0000000000000023
#052350:0000000000130000
#052320:0000000000000023
#053320:00130000
#053350:0023
#0533b0:0000000000130000
#053380:0000000000000023
#054380:0000000000130000
#0543b0:0000000000000023
#055380:00130000
#0553b0:0023
#055350:0000000000130000
#055320:0000000000000023
#056320:0000000000130000
#056350:0000000000000023
#057350:00130000
#057320:0023
#057380:0000000000130000
#0573b0:0000000000000023
