This file was generated by Ched 2.6.2.0.
#TITLE "master"
#ARTIST ""
#DESIGNER ""
#DIFFICULTY 0
#PLAYLEVEL
#SONGID ""
#WAVE ""
#WAVEOFFSET 0
#JACKET ""
#REQUEST "ticks_per_beat 480"
#00002: 4
#BPM01: 128
#00008: 01
#TIL00: ""
#HISPEED 00
#MEASUREHS 00
#0001a:0000000000120000
#00018:00000012
#00016:0000000000000022
#00112:0000000000130000
#00115:00000013
#00118:0012120000000013
#00116:00000012000013000000000000000000
#0011b:0000001300000000
#00114:22
#0021b:1313
#0021a:0013000000000000
#00218:0000001300001300
#00216:00000012
#00215:0000130000120012
#00212:13
#00219:00130000
#00617:0000000013000013
#00612:0000001313000013
#00616:00000013
#0061b:13
#00618:0013001200000000
#00615:00130000
#00613:0012000000000000
#0131b:1300001300000000
#01316:0000001300000000
#01312:1300130000130000
#01314:00000013
#01319:0000000000000013
#01317:00000000000000000000001200000012
#01516:0000001300000000
#01519:0012
#0151b:1300130000130000
#01512:1300001200001313
#01515:0013
#01517:0000000000121300
#01510:41
#01614:0000000000120000
#0161b:00130013
#01612:00130013
#01615:00000000000000000000000000120012
#0161a:0012
#01617:00001300000000000012000000000000
#01619:0000000000000022
#0311b:0000131300130000
#03119:0012
#03112:1300001300130013
#03115:0012
#03116:0000000000000013
#03718:00001300001300000000130000130000
#03715:00130000000013000013000000001300
#0371b:13231323
#03712:23132313
#0381b:13
#03812:23
#04519:0012000000000000
#0451b:1300000013001313
#04518:00000000000000130000130000000000
#04512:1300000013001313
#04517:00120000
#04515:00130000000012000000001300000000
#04618:0000131300000000
#04612:0013000013000000
#0461b:00001313
#04619:00000000000000000000000000120012
#04615:00000013000000130000000000001200
#04617:13
#04616:0000000000130000
#04915:0013000000000000
#0491b:1300000000131300
#04912:1300001313000013
#04913:00130000
#04916:0000000000131300
#04917:0000000000000013
#05814:0000000000120000
#05816:00000012
#05818:0013000000000022
#0581b:13
#05815:00230000
#05812:0000002300000000
#03912:1300000000130000
#03917:00000013
#03916:0000000000130000
#0391b:13000013
#05012:0000000013131300
#05015:00000000000000000000000000130000
#05018:0000000000000013
#0501b:0013130000000000
#05017:00130000
#05016:0013
#00912:0013001300130000
#00917:0013001300120000
#0091b:23130000
#00915:00000013
#00918:0000000000000013
#0091a:00000012
#00914:0000000000000012
#00916:23
#00910:41
#0111b:1300001300130000
#01112:00130000
#01119:00000013
#01114:0000000000000013
#01117:00000000130000000000001200000012
#01116:1300001300000000
#04318:0000000000000013
#04319:00000013
#04317:00131300
#04316:00000000000013000000000000130000
#04312:23131300
#04315:00000000000000000000000000000013
#0431b:2300001300130000
#0431f:21
#00812:0000130000130000
#00815:00000013
#0081b:00130000
#00817:0013000000000000
#00818:0000000000000023
#00316:0012120000000000
#00318:00000012000000000000000013000000
#00312:1300001300000000
#00317:0000001300000000
#0031b:0000000000130012
#00315:0000000000000013
#00313:00000012
#0041b:0012001313000000
#00416:0000001213130000
#00412:13000013
#00417:0000000000000013
#00415:0013000000000000
#00418:00130000
#00517:13
#00518:0012120000000013
#00516:00000012000013000000000000000000
#0051b:0000001300001200
#00512:0000000000130000
#00515:00000013
#00513:0000000000000012
#00716:1300000000131300
#0071b:1300001300001300
#00717:0000131200000000
#00715:0013
#00712:0000000000120013
#00719:0012
#01219:13000000001200000000000000001300
#01212:0013000000000000
#01213:00120000
#01215:0000001200000000
#0121b:00001300000000120000001313000000
#01217:0012
#01216:00000013
#01214:0000000000000013
#02518:0012120000000000
#02516:00000012000000000000130000000000
#02512:2300001300001313
#02517:00001313
#0251b:0000001300000013
#03019:0013000000130013
#0301a:00130000
#0301b:0000001313000000
#03014:0013001300130000
#03012:1300000000000013
#03013:00000013
#03016:13130000
#03017:00000013
#0321b:00001300130000000013000000000000
#03219:00000000000013000000001300000000
#03217:00000000000000001300000000130013
#03215:0000000000130000
#03213:00000013
#03212:0000000000000013
#04212:00131313
#04215:00000000000000000000000000120012
#04219:0000000000000012
#0421b:0013001300001300
#04216:1414141414000000
#04416:00131300
#0441b:23131300
#04412:2300001300130000
#04417:00000000000013000000000000130000
#04415:0000000000000013
#04414:00000013
#04418:00000000000000000000000000000013
#04410:41
#04712:23131300
#04717:00000000130000001300000000130000
#0471b:2300001300000000
#04716:0000001300130000
#04714:00000013
#04715:0000000000000013
#04718:00000000000000000000000000000013
#0481b:23131300
#04816:00000000130000001300000000130000
#04812:2300001300000000
#04817:0000001300130000
#04819:00000013
#04818:0000000000000013
#04815:00000000000000000000000000000013
#0551b:0013000013001300
#05518:0000000000000013
#05516:0000000000130000
#05517:0013130000000000
#05512:1300130000130000
#05514:0000000000000013
#05515:0000001300000000
#05612:1300130000130000
#05615:0000001300000000
#05617:0013000000000000
#0561b:00001313
#05618:0000000000000013
#05616:0000000000130000
#0561a:0013002300000000
#05614:00000013
#05619:00230000
#02617:1313000000000000
#02616:0000001300000000
#02612:13000000000013000000001313000000
#02614:0000000000000013
#0261b:0013000013000000
#02615:00130000
#02919:0000000000000013
#02917:1300000000131300
#0291b:00000013000000000000130000000000
#02913:00000013
#02915:0000000000000013
#02912:0000001300000000
#02916:0013130000000000
#02910:41
#02716:13
#0271b:0000001300000000
#02712:00000013000000000000130000000000
#02715:00000013
#02713:0000000000000013
#02717:0013130000000000
#0571b:1300130000130000
#05718:0000001300000000
#05716:0013130000000000
#05712:0013000013001300
#05715:0000000000000013
#05717:0000000000130000
#05719:0000000000000013
#0241b:0000130000130000
#02418:00000013
#0241a:1313
#02419:0013000000000000
#02416:00000013000000000000000000000000
#02417:00000000000000130000000000000000
#02412:1313
#02415:0000000000000023
#02413:00230000
#02414:0000002300000000
#04116:00160000
#04112:1600001600001600
#04118:0000001600001600
#04114:0000000000160000
#02819:0000000000000013
#0281b:00000000000013000000001313000000
#02816:1313000000000000
#02817:0000001300000000
#02812:0013000013000000
#02818:00130000
#03312:1300130000130000
#03317:1300130000130000
#03316:0013000013001300
#0331b:0013000013001300
#0331f:11
#03612:13000013
#03618:0013000000000000
#0361a:00130000
#0361b:1300001300000000
#03613:0000000000130000
#03617:0000000000000013
#0341b:1300130000130000
#03417:0013000013001300
#03412:0013000013001300
#03416:0000130000130000
#03512:1313131313001300
#0351b:0000130013131313
#03516:0014001400140014
#01718:00001300130000000013001300000000
#01715:00000013000000001300130000000000
#0171b:2300001300001313
#01712:2300001300001300
#01717:00000000000000000000000000000013
#0181b:1300002300000013
#01812:00001300130000000000001300000000
#01816:00000013000000130000000000000000
#01819:00231313
#01814:13000000000000000013000000130000
#01817:0000000000130000
#01912:1300001300001313
#0191b:1300001300001300
#01915:00001300130000000013001300000000
#01918:00000013000000001300130000000000
#01916:00000000000000000000000000000013
#02012:1300002300000013
#0201b:00001300130000000000001300000000
#02017:00000013000000130000000000000000
#02014:00231313
#02019:13000000000000000013000000130000
#02016:0000000000130000
#0211b:1300001300131300
#02112:1300131300001300
#02118:00001300000000000013000000000000
#02115:00000013000000001300001300000000
#02119:0000000000000013
#02116:00000000000000000000000000000013
#02213:13
#02214:0013000000000000
#02217:00000013000000000000000000000000
#02212:00000000130000130000001300000000
#02218:0000000013130013
#02215:00000000000000000013000000130000
#0221b:1300002300001300
#0221a:00230000
#02210:41
#02312:1300001300131300
#0231b:1300131300001300
#02315:00001300000000000013000000000000
#02318:00000013000000001300001300000000
#02314:0000000000000013
#02317:00000000000000000000000000000013
#0101b:13
#01017:12
#01016:0013000000000000
#01012:0000000000000013
#04012:0012000014000000
#04017:00000012000000000000001400000000
#04014:00120014
#04019:00000000001200000000000000000014
#04016:00000000000012000014000000000000
#0401b:00000000000000120000000000000000
#04013:0000000000140000
#04018:00000000000000000000000000140000
#04015:0000000000000014
#01414:1300000000000013
#0141b:0013120000000000
#01419:0000001200000013
#01413:00000000000000120000000000000000
#01412:00001300000000000000001313000000
#01415:00000000001200000000000000000000
#01417:00001213
#05112:1300001313000013
#05116:0013000000130000
#0511b:1313130000131300
#05117:0000001300000013
#05212:1300130000130013
#05217:0013001300000000
#0521b:0013002313001300
#05216:0000000000130013
#05215:00000013
#05218:00230000
#05312:1313130000131300
#05316:0000001300000013
#0531b:1300001313000013
#05317:0013000000130000
#05310:41
#0541b:1300130000130013
#05416:0013001300000000
#05412:0013002313001300
#05417:0000000000130013
#05418:00000013
#05415:00230000
#0591a:22
#0135b:53
#04452:33
#0445b:4323
#04457:0000006300000000
#00657:0053
#00956:53
#00952:0023000000000000
#0015b:0000005300000000
#00352:0000006300000000
#0045b:0053
#00452:00000053
#00456:0000000000230000
#00457:0000000000000023
#0055b:0000005300000000
#00756:63
#00752:0000000000000013
#00852:00230000
#0085b:00230000
#00857:0053000000000000
#01652:00230000
#0165b:00230000
#01657:0053000000000000
#03152:5300000000000053
#0375b:1313
#03752:00130013
#0435b:43
#04352:3323
#04356:0000005300000000
#04752:33
#0475b:4300005300000000
#04757:0023
#0455b:0000000000000053
#04652:0053
#04656:0000000000230000
#04657:23
#0485b:43
#04852:3300006300000000
#04856:0023
#0495b:53
#04952:0000000000000053
#0505b:00530000
#05056:0023
#0555b:0000001363006300
#05558:0000000000000023
#05556:0000000000234300
#05557:0023530000000000
#05552:5300530000230000
#05555:0000002300000000
#05652:5300530000530033
#05655:0000002300000000
#05657:0023000000000000
#0565b:00006363
#05658:0000000000000023
#05656:0000000000230000
#05654:00000023
#0395b:53
#03952:63
#02756:53
#02752:00000023000000000000000000000000
#0575b:5300630000230000
#05758:0000002300000000
#05756:0023630000000000
#05752:0000001353005300
#05755:0000000000000023
#05757:0000000000233300
#04158:0000004600000000
#04152:36000036
#04154:0000000000360000
#04156:00460000
#0425b:0043004300000000
#04252:00333300
#04256:0034443444000000
#01552:6300000000000013
#00252:53
#0025b:0053
#00255:00530000
#00258:00000053
#02657:53
#02655:00530000
#0265b:0023000000000000
#02652:0000002300000000
#02957:63
#0295b:00000023000000000000000000000000
#02856:63
#02852:0023000000000000
#02858:00630000
#0285b:0000002300000000
#03052:23
#03056:00230000
#0305b:0023
#03057:00000023
#03054:0053005300000000
#03059:0000000000530053
#03352:6300630000230000
#03356:0023000063006300
#03357:00530000
#0335b:00000053
#0345b:5300530000230000
#03457:0023000053005300
#03452:00000063
#03456:00630000
#03652:53
#0365b:0000005300000000
#0255b:0000005300000000
#02557:0023
#03552:13130000
#0355b:00001313
#0185b:13
#01852:00130000
#02052:13
#0205b:00130000
#02253:33
#0225b:43
#02252:00330000
#0225a:00430000
#0245a:4343
#02452:3333
#0245b:00430000
#02453:00330000
#05152:5300001353003300
#05156:0023000000230000
#0515b:00630063
#05157:0000002300000023
#05252:63630000
#05257:0023002300000000
#0525b:00005353
#05256:0000000000230023
#05352:00530053
#05356:0000002300000023
#0535b:5300001363004300
#05357:0023000000230000
#0545b:53530000
#05456:0023002300000000
#05452:00006363
#05457:0000000000230023
#0385b:13
#0013b0:0000001300000000
#001370:0000000000230000
#002320:1323
#002350:00530000
#0023b1:0013
#002381:00000053
#0033b1:23
#003321:0000001300000000
#003361:0000000000230000
#0043b1:00001323
#004361:0000000000530000
#004320:00000013
#004370:0000000000000053
#005320:23
#0053b0:0000001300000000
#005370:0000000000230000
#006370:0013
#0063b0:00000023
#007360:13
#007320:00230000
#007370:0000000000000013
#008370:0033000000000000
#0083b0:00530000
#008380:0000002300000000
#008321:00130000
#008351:0000002300000000
#009361:13230000
#009321:0053000000000000
#010321:0013000000000000
#010341:00230000
#010380:00130000
#0103a0:0000002300000000
#010351:0000001300000000
#010371:0023
#0103b0:0013
#010390:0000000000230000
#010351:0000000000130000
#010331:00000023
#010380:00000013
#010360:0000000000000023
#0133b0:13
#013370:00230000
#015320:13
#015360:00230000
#015370:0000000000000013
#016370:0033000000000000
#0163b0:00530000
#016380:0000002300000000
#016321:00130000
#016351:0000002300000000
#0253b1:0000001300230000
#025371:0053
#026371:13
#0263b1:0053000000000000
#026381:00230000
#026350:00130000
#026320:0000005300000000
#026360:0023
#026370:00000013
#0273b0:23
#027361:1300002300000000
#027321:00000053000000000000000000000000
#027371:0000000000130000
#0283b1:23
#028360:13
#028320:0053000000000000
#028350:00230000
#028381:00130000
#0283b1:0000005300000000
#028371:0023
#028361:00000013
#029321:23
#029370:1300002300000000
#0293b0:00000053000000000000000000000000
#030320:1323
#030340:0053005300000000
#030360:00530000
#0303b1:0013
#030391:0000000000530053
#030371:00000053
#0313b1:23
#031320:13
#031370:00230000
#031320:0000000000000013
#032370:0023000000000000
#033320:1300530000530000
#033360:0053000053005300
#034320:23
#033371:00130000
#0333b1:0000002300000000
#0333b1:00000013
#033371:0000000000000023
#0343b1:1300530000530000
#034371:0053000053005300
#0353b1:23
#034360:00130000
#034320:0000002300000000
#034320:00000013
#034360:0000000000000023
#036321:13
#036371:0000002300000000
#0363b0:0000001300000000
#036360:00000023
#038320:00130033
#0383b0:0033
#0393b0:33
#039320:0000002300000000
#0383b1:00130033
#038321:0033
#039321:33
#0393b1:0000002300000000
#043361:0000001300230000
#043321:0053
#044371:0000001300230000
#0443b1:0053
#0453b1:0000000000000013
#046371:53
#0463b1:0023000000000000
#046321:00001323
#046361:0000000000530000
#0473b1:0000001300230000
#047371:0053
#048321:0000001300230000
#048361:0053
#0493b1:13
#049361:0023
#049321:0000000000000013
#050371:0023000000000000
#0503b1:00130023
#050361:0053
#051321:13230000
#051361:0053000000000000
#0513b0:00132300
#051370:0000005300000000
#051321:00001323
#051361:0000000000530000
#0513b0:00000013
#051370:0000000000000053
#0523b0:23
#052321:13332300
#052371:0053005300000000
#0523b0:00001333
#052360:0000000000530053
#0533b0:33230000
#053370:0053000000000000
#053321:00132300
#053361:0000005300000000
#0533b0:00001323
#053370:0000000000530000
#053321:00000013
#053361:0000000000000053
#054321:23
#0543b0:13332300
#054360:0053005300000000
#054321:00001333
#054371:0000000000530053
#055321:33332300
#055371:0053000000000000
#055351:0000005300000000
#055370:00130000
#0553b0:0000002300000000
#0553b0:00001333
#055360:0000000000530000
#055380:0000000000000053
#0563b0:23
#055321:0000000000130000
#055361:00000023
#056321:13332300
#056371:0053000000000000
#056351:0000005300000000
#0563b0:00001333
#056360:0000000000530000
#056380:0000000000000053
#0573b0:33332300
#057360:0053000000000000
#057380:0000005300000000
#056321:0000000000130023
#056341:00000053
#057361:00130000
#057321:0000002300000000
#057321:00001333
#057371:0000000000530000
#057351:0000000000000053
#058321:23
#0573b0:0000000000130000
#057370:00000023
