This file was generated by Ched 2.6.2.0.
#TITLE "normal"
#ARTIST ""
#DESIGNER ""
#DIFFICULTY 0
#PLAYLEVEL
#SONGID ""
#WAVE ""
#WAVEOFFSET 0
#JACKET ""
#REQUEST "ticks_per_beat 480"
#00002: 4
#BPM01: 128
#00008: 01
#TIL00: ""
#HISPEED 00
#MEASUREHS 00
#00219:1414
#00213:00140014
#0061a:14
#00618:0014
#00614:00140000
#00612:00000014
#0071a:14
#00714:00140000
#00718:0014
#00712:00000014
#00912:14
#00918:00140000
#00914:0014
#0091a:00000014
#00910:41
#01012:1414
#0101a:00140000
#01312:14
#0131a:00140000
#01314:0014
#01318:00000014
#01412:14
#0141a:00140000
#01414:0014
#01418:00000014
#0171a:1414
#01714:00140014
#01912:1414
#01918:00140014
#0211a:14
#02114:00140014
#02118:0014
#02312:14
#02318:00140014
#02314:0014
#0251a:1414
#02514:00140000
#0331a:14
#03314:00140000
#03318:0014
#03312:00000014
#0331f:11
#03418:14
#03414:00140000
#0341a:0014
#0431a:00001414
#04314:0000000000140000
#04319:24
#04313:24
#0431f:21
#04412:00001414
#04418:0000000000140000
#04413:24
#04419:24
#04410:41
#04514:00140014
#04518:0014
#0451a:14
#0461a:14
#04614:00140014
#04618:0014
#04714:00001414
#04718:0000000000140000
#04712:24
#0471a:24
#04818:00001414
#04814:0000000000140000
#0481a:24
#04812:24
#05112:14
#05118:00140000
#05114:0014
#0511a:00000014
#0531a:14
#05314:00140000
#05318:0014
#05312:00000014
#05310:41
#05512:14
#05518:00140000
#05514:0014
#0551a:00000014
#0571a:14
#05714:00140000
#05718:0014
#05712:00000014
#05813:0000000000140024
#0581a:14
#05819:00000014
#0111a:14
#01114:00140000
#01118:0014
#01112:00000014
#0121a:1414
#01212:00140000
#01518:0000000000000014
#01512:0034
#01510:41
#0161a:0014
#01614:00000014
#04912:14140000
#04918:0014001400000000
#04914:00001414
#0491a:0000000000140000
#00413:1414
#00419:00140014
#00019:00000014
#00113:14
#00819:14
#02612:1414
#02618:00140000
#02718:1414
#02714:00140000
#02814:1414
#02818:00140000
#02919:1414
#02913:00140000
#02910:41
#03013:1414
#03019:00140000
#03712:14
#03718:00140000
#03714:0014
#0371a:00000014
#03814:14
#03818:00140000
#03812:0014
#05919:24
#02210:41
#04359:14
#04353:14
#04459:14
#04453:14
#0475a:14
#04752:14
#04852:14
#0485a:14
#003390:1400002400000000
#005330:1400002400000000
#015320:1400003434000000
#015340:0000000000240000
#0183a0:14
#018380:0024
#020320:14
#020340:0024
#022380:14
#0223a0:0024
#024340:14
#024320:0024
#031390:1424
#032330:1424
#0353a0:14
#035380:00000024
#036340:14
#036320:00000024
#039320:14000034
#039340:0000003400000000
#040340:0024000000000000
#0413a0:14000034
#041380:0000003400000000
#042380:0034343434002400
#0493a0:0000000000000014
#0503a0:0034340000000000
#050380:00000024
#052320:14
#052340:0024
#0543a0:14
#054380:0024
#056340:14
#056320:0024
