This file was generated by Ched 2.7.0.0.
#TITLE ""
#ARTIST ""
#DESIGNER ""
#DIFFICULTY 0
#PLAYLEVEL
#SONGID ""
#WAVE ""
#WAVEOFFSET 0
#JACKET ""
#REQUEST "ticks_per_beat 480"
#00002: 4
#BPM01: 132
#00008: 01
#TIL00: ""
#HISPEED 00
#MEASUREHS 00
#00019:14
#00119:14
#00110:41
#00213:14
#00313:14
#00514:14
#00510:0041
#00418:14
#00818:14
#00914:14
#0121a:14
#01314:14
#01418:14
#01410:0041
#01512:14
#0161a:14
#01714:14
#02818:2616
#0281f:21
#02912:16
#02918:0016
#02910:41
#03012:1616
#03118:16
#03112:0016
#03218:1616
#03312:16
#03318:0016
#03412:1616
#03612:0016
#03718:16
#03714:0014
#03818:14
#03814:0014
#02012:14
#0201f:11
#02118:14
#02214:14
#0231a:14
#02412:14
#02518:14
#0061a:24
#00712:24
#0101a:24
#01010:41
#01112:24
#03913:24
#03919:24
#0401a:24
#04012:24
#01910:41
#018380:14
#019380:24
#026340:14
#027340:24
#035380:16
#036380:26
