This file was generated by Ched 2.7.0.0.
#TITLE ""
#ARTIST ""
#DESIGNER ""
#DIFFICULTY 0
#PLAYLEVEL
#SONGID ""
#WAVE ""
#WAVEOFFSET 0
#JACKET ""
#REQUEST "ticks_per_beat 480"
#00002: 4
#BPM01: 132
#00008: 01
#TIL00: ""
#HISPEED 00
#MEASUREHS 00
#00015:00000013000000000000000000000000
#00018:00130000
#00012:1400001300001400
#0001b:0013
#00016:0000000000000014
#0001a:14
#00118:00000013000000000000000000000000
#00115:00130000
#0011a:14000014
#0011b:0000001300000000
#00112:1413
#00116:0000000000000014
#00110:41
#00215:00000013000000000000000000000000
#00218:00130000
#00216:0000001400000000
#00212:14
#0021a:14
#00413:0013000000000000
#00416:00140014
#0041a:0000001300000000
#00412:1300000013130013
#0041b:000000000000000000000000003333000000130000000000
#00514:14
#00518:0014000000001300
#0051b:00130000
#00516:0000001400000000
#00513:0013
#0051a:0013
#00512:00130000
#00515:00000013
#00510:0041
#00615:00000013000000000000130000000000
#00618:0013130000000000
#00614:0000001300000000
#00616:0000000000000014
#0061a:00000014
#00612:0013
#00619:0000001300000000
#0061b:0013
#00712:0013000014000000
#00716:0000001400000000
#0071a:14140000
#00715:13000013
#0071b:0000000000130000
#00718:0013
#0121b:0013130000000013
#01218:0000001313000000
#01215:00000013000000000000140000001300
#01219:00000013
#01212:1313
#01412:0013130000001300
#01415:0000001313000000
#01418:00000013000000000000140000000000
#01416:0000000000000013
#0141b:0000000013001313
#01410:0041
#01516:0000001400000000
#01513:13
#01515:0013000013001300
#0151b:00001313
#01519:13
#0151a:0013000000000000
#01518:0000130000000013
#01512:0000000000000013
#01617:0013130000000000
#0161b:0000001313000013
#01615:0000000000130000
#01612:00000000001300001300000000001300
#01618:00000013
#01718:0000000000001313
#01716:14140000
#0171a:0014001400000000
#01712:13131300
#01312:13130013
#0131b:0000001300001300
#01318:0000130000000013
#0131a:13
#01319:0013000000000000
#01313:0000001300000000
#01315:0000000000000013
#0201b:1313
#02015:0013131313000013
#02012:1300000000130000
#02016:00000014
#02018:00000013000000000000130000000000
#0201f:11
#02115:0013130000000000
#02116:0000001400000000
#0211b:0013
#02112:1313
#02118:00000013000000000000000000000000
#02515:00000013000000000000000013000000
#0251b:13001313
#02512:0000000013000013
#02518:0013130000000013
#02516:0000001400000000
#02912:0013000000242400
#02917:0013000000000000
#02919:00130000
#02914:00130000
#02916:0000001300140000
#0291b:0000001300000000
#0291a:0014
#02910:41
#03614:0013130000002300
#03616:0000001400140000
#0361b:1313
#03619:0013130000002300
#03612:1313
#03916:0000000000000012
#04018:12
#0281b:0013001300001300
#02815:0013001300000000
#02812:13001313
#02818:1313
#0281f:21
#03015:1300001300001300
#0301b:1300001300001300
#03016:0014000000140000
#03012:00131300
#03018:00131300
#03118:0013001313000000
#03115:00000013000000001300000000000000
#0311b:00130000
#03112:0000001300242400
#01815:1300130000001313
#01813:0000001300130000
#01812:0013
#0181b:0000130013000013
#01818:0000001300130000
#00318:1300000000131300
#00315:13000000000000000000001300000000
#0031b:00130000
#00312:00130000
#0081a:0013000000000000
#00816:00140014
#00813:0000001300000000
#00812:000000000000000000000000003333000000130000000000
#0081b:1300000013130013
#00918:14000013
#00914:0014000000000000
#00912:00130000
#00916:0000001400000000
#0091a:0013
#00913:0013
#0091b:00130000
#00915:00000013
#01018:00000013000000000000130000000000
#01015:0013130000000000
#01019:0000001300000000
#01014:0000001300000000
#01016:0000000000000014
#01012:00001314
#0101b:0013
#01010:41
#01912:0013000013000000
#01915:00130000
#01918:0013000013000000
#0191b:00130000
#01910:41
#02212:0014000000000013
#02214:00140000
#02216:0000001400000000
#02218:0014
#0221a:0000000000140000
#02217:0000000000000013
#02317:13
#02318:00000013
#02319:0013000000000000
#02312:0000001300000000
#0231b:0000000000130000
#02412:1313
#02418:0013131313000013
#0241b:0000000000130000
#02416:00000014
#02415:00000013000000000000130000000000
#02616:1300001300000013
#02612:00131300
#0261b:1300001300000013
#02617:00131300
#02715:0013130000001300
#02718:00130000
#02717:0013
#03212:0013001300001300
#0321b:13001313
#03215:1313
#03218:0013001300000000
#03316:0013000000140014
#0331b:0013000000000000
#03314:00130000
#03319:00130000
#03317:0000001300000000
#03312:0000001314000000
#0331a:0000000000242400
#03412:13130013
#0341b:1300000013000013
#03417:00000013
#03416:0000000000000013
#03512:13
#03516:0000001300000000
#0351b:00000013
#03713:0013000000000000
#03716:00140014
#0371a:0000001300000000
#03712:0000000013130013
#0371b:000000000000000000000000003333000000130000000000
#03814:14
#03818:0014000000000013
#0381b:00130023
#03816:0000001400000000
#03813:0013
#0381a:0013
#03812:00130023
#03815:0000000000000013
#0111a:0014
#01116:0000001400000000
#0111b:0013000000000000
#01112:1400140000130000
#01118:13000013
#01115:0013
#00052:00000014
#0015a:00000014
#01458:0000000000140000
#01456:0000000000000053
#00752:0023000000000000
#00755:53000053
#0075b:0000000000230000
#00758:0063
#01255:0000000000000063
#01352:23000063
#0135b:0000002300005300
#01358:0000530000000023
#01355:0000000000000023
#01555:0053000000005300
#01553:23
#0155b:00000053
#01558:0000000000000023
#01552:0000000000000023
#01756:54540000
#0175a:0024002400000000
#01752:0013
#02852:2353
#02858:2353
#02855:0053002300000000
#0285b:0053002300000000
#00652:3463
#0065a:44
#00655:0000000000230000
#0165b:43
#01655:43
#01955:00530013
#01952:0053000053000000
#01958:0053000053000000
#0195b:00530013
#00358:53000053
#0035b:00530000
#00355:63
#00352:00630000
#00555:00000023
#00558:00000023
#00955:00000023
#00958:00000023
#0105a:44
#01052:34
#0105b:0053
#01058:0000000000230000
#01855:0000000000000053
#0185b:0000530053000053
#01858:0000002300230000
#0225a:0000000000440000
#02358:00000053
#02656:5300005300000000
#02652:00535300
#0265b:5300005300000053
#02657:00535300
#02755:00230000
#0295a:0054
#02956:0000000000240000
#02952:00000014
#03158:0053
#03152:00000014
#0345b:5300000053000053
#03452:00530053
#03457:00000053
#03456:0000000000000053
#03552:53
#03556:0000002300000000
#03759:45
#03752:35
#0385b:00000053
#03852:00000053
#03858:0000000000000023
#03855:0000000000000023
#0395b:43
#03952:33
#0115b:0023000000000000
#01158:63000053
#01152:0000000000230000
#01155:0053
#0325b:2363
#03255:2363
#03252:0053002300000000
#03258:0053002300000000
#03352:0064
#03356:0000000000240000
#0335a:00000014
#02452:13
#0255b:0013
#02552:0013
#002340:0000000013230000
#002391:0000000013230000
#002321:0000000000001323
#0023b0:0000000000001323
#003380:1323
#0033b0:00330000
#003351:1323
#003321:00330000
#003381:00000013
#0043b1:23
#0043b1:000000000000000000000000133333000000000000000000
#004371:0000000000230000
#005351:00000013
#006321:24
#005380:00000013
#0063a0:24
#006320:00001323
#006350:0000000000530000
#007350:13230000
#007320:0053000000000000
#007380:00001323
#0073b0:0000000000530000
#007351:00000013
#008321:23
#008321:000000000000000000000000133333000000000000000000
#008361:0000000000230000
#009381:00000013
#0103a1:24
#009350:00000013
#010320:24
#0103b0:00001323
#010380:0000000000530000
#011380:13230000
#0113b0:0053000000000000
#011350:00001323
#011320:0000000000530000
#011381:00000013
#0123b1:23
#012351:0000000000000013
#013321:33
#013351:0023000000000000
#013381:00132300
#0133b1:0000003300000000
#013340:0000000014240000
#0133b0:00000013
#013380:0000000000000053
#0143b0:23
#013321:00000013
#013351:0000000000000053
#014321:23
#014361:0000000000000013
#015331:33
#015351:0033000000000000
#015321:00230000
#015351:00000013
#015321:0000000000000053
#016351:23
#0153b0:00000013
#015380:0000000000000053
#0163b0:23
#017360:14342400
#0173a0:0034003400000000
#017320:0000000000001323
#0183b0:13333323
#018380:0000003300330000
#018350:0000000000000013
#019320:0033000033000000
#019350:00330023
#0183b1:0000000000000013
#019381:0033000033000000
#0193b1:00330023
#0203a1:0000000000000014
#0213a1:24
#0213b1:00000013
#0223b1:23
#021360:00000013
#022360:23
#023320:13230000
#023350:0033000000000000
#0233b1:00132300
#023381:0000003300000000
#023340:00001323
#023370:0000000000330000
#023381:00000013
#0243b1:23
#024321:0000000000000014
#025321:24
#026361:1300003300002300
#026321:00333300
#0263b0:1300003300002300
#026370:00333300
#0263b0:0000000000000013
#027380:0023000000000000
#027350:00130000
#027320:0023
#027380:00000013
#028380:33230000
#0283b0:0033000000000000
#028321:13230000
#028351:0033000000000000
#028351:0000001300230000
#028321:0033
#0283b0:0000001300230000
#028380:0033
#028340:0000000000000013
#029340:23
#028391:0000000000000013
#029391:23
#0293a1:00001424
#029361:0000000000340000
#030321:0000000000000013
#031321:23
#030380:0000000000000013
#031380:23
#031380:0013
#0313b0:00000023
#032350:13230000
#032320:0033000000000000
#0323b1:13230000
#032381:0033000000000000
#032381:0000001300230000
#0323b1:0033
#032320:0000001300230000
#032350:0033
#032390:0000000000000013
#033390:23
#032341:0000000000000013
#033341:23
#033321:00001424
#033361:0000000000340000
#0343b1:13
#034371:00230000
#034320:00130000
#034360:0023
#0343b1:0000000013000033
#034371:00000033
#035371:23
#034320:00000013
#034360:0000000000000033
#035320:33000023
#035360:0000005300000000
#036390:00000013
#037390:25
#036341:00000013
#037321:25
#0373b1:000000000000000000000000133333000000000000000000
#037371:0000000000230000
#0383b1:00000013
#038381:0000000000000053
#0393b1:23
#038320:00000013
#038350:0000000000000053
#039320:23
