This file was generated by Ched 2.7.0.0.
#TITLE ""
#ARTIST ""
#DESIGNER ""
#DIFFICULTY 0
#PLAYLEVEL
#SONGID ""
#WAVE ""
#WAVEOFFSET 0
#JACKET ""
#REQUEST "ticks_per_beat 480"
#00002: 4
#BPM01: 132
#00008: 01
#TIL00: ""
#HISPEED 00
#MEASUREHS 00
#00018:00131300
#00015:0000001300000000
#00016:0000000000000014
#00012:14
#0001a:14
#00216:0000141400000000
#0021a:14
#00212:14
#00412:0014000000000013
#00416:00140000
#0041a:000000000000000000140000003434000000000000000000
#00415:00000013
#00515:13
#00518:0013000000000000
#0051b:00130000
#00516:0000001400000000
#00513:0013
#0051a:0013
#00510:0041
#0061b:00131300
#00615:0000001300000000
#00616:0000000000000014
#00614:00000014
#00716:1600001400000000
#00718:0016000000000000
#00712:0000000000160000
#00714:0016
#0121a:0014141400000000
#01216:0014
#01212:0000000000140000
#0121b:0000000000000013
#01412:0014141400000000
#01416:0014
#0141a:0000000000140000
#01410:0041
#01614:0014000000140000
#01616:00141400
#01618:0000001400000000
#0161a:0000000000000014
#0171b:00000013
#01718:0000000000000013
#01716:1400001400000000
#01712:0014140000000000
#0171a:0014
#00116:0000000000000014
#00115:00131300
#00118:0000001300000000
#0011a:14
#00112:14
#00110:41
#02918:0014000000000000
#02912:00140000
#0291a:0000001400000000
#02914:00000024
#02910:41
#03915:0000000000000013
#04018:13
#01512:0014
#0151a:0014
#0151b:00000013
#01515:00000013
#0301b:1300000000130013
#03012:1300000000130013
#03019:0000131300000000
#03014:0000131300000000
#03112:00140000
#03115:0013000000000000
#03118:00000013000000000000000000000000
#03116:0000001400000000
#0311a:00000024
#0081a:0014000000000000
#00816:00140000
#00812:000000000000000000140000003434000000000000000000
#00818:00000013
#0081b:0000000000000013
#00918:13
#00915:0013000000000000
#00912:00130000
#00916:0000001400000000
#0091a:0013
#00913:0013
#01012:00131300
#01018:0000001300001400
#01016:0000000000000014
#01010:41
#01116:0000001416000000
#01112:0016000000000000
#01114:16
#01118:0000000000160000
#01315:1313
#01318:0013001300000000
#01312:00130000
#01815:0000133300330000
#01812:0013
#01818:0000000000000013
#0191b:0013000013000000
#01918:00130000
#01910:41
#02012:0014141400000013
#02016:0014
#0201a:0000000000140000
#0201f:11
#0221a:0014141400000000
#02216:0014
#02212:0000000000140000
#02418:0014000000140000
#02416:00141400
#02414:0000001400000000
#02412:0000000000000014
#0231a:0014
#02312:00001413
#02318:00000013
#02118:1313
#02115:0013001300000000
#0211b:00130000
#02516:1400001400000000
#0251a:0014140000000000
#02512:00001413
#02515:0000000000000013
#02618:1300001300000000
#02615:0000000013000013
#0261b:0000000000000013
#02718:0013130000001300
#02712:0013130000001300
#0271b:0013
#02715:0013
#0281b:0000000000000013
#02812:0000000000000013
#0281f:21
#03314:0014000000000013
#0331a:00140000
#03312:0000001400001300
#03318:0014
#03317:00000013
#03319:0000000000000013
#03212:0000000000000013
#0321b:0000000000000013
#0341b:13
#03416:13
#03412:0013
#03417:0013
#03419:0000000000000013
#03414:0000000000000013
#03512:13
#03517:13
#03516:0000001300000000
#0351b:0000001300000000
#0361b:0013000000001300
#03618:0000130000130000
#03615:0000001300001300
#03612:0013
#0371a:0014000000000000
#03716:00140000
#03712:230000000000000000140000003434000000000000000000
#03718:23000013
#0371b:0000000000000013
#03818:13
#03815:0013000000000000
#03812:00130000
#03816:0000001400000000
#0381a:00001323
#03813:00001323
#0145a:0000000000140000
#00758:0026000000000000
#00756:66
#00752:0000000000260000
#00754:0056
#00652:15
#00659:15
#01958:00630013
#0195b:0063000063000000
#03952:15
#03959:15
#01059:15
#01052:15
#01152:0026000000000000
#01154:56
#01158:0000000000260000
#01156:0066
#0155b:00000053
#01555:00000053
#01855:00630000
#01852:0023
#01858:0000000000000063
#02252:0000000000140000
#02352:00000063
#02358:00000063
#02658:53
#02655:0053
#0345b:53
#03456:53
#03452:0063
#03457:0063
#03552:63
#03557:63
#0355b:0000002300000000
#03556:0000002300000000
#02954:00000014
#0315a:00000014
#0175a:0014
#02552:0014
#002320:0000000016260000
#002380:0000000000001626
#003320:1434
#003360:00340034
#004320:24
#0043a0:000000000000000000000000143434000000000000000000
#004380:0000000000240000
#005330:00000013
#006320:25
#0053a1:00000013
#006391:25
#007361:16260000
#007381:0036000000000000
#007341:00001636
#007321:0000000000360000
#008341:26
#008321:000000000000000000000000143434000000000000000000
#008341:0000000000240000
#0093a1:00000013
#010391:25
#009330:00000013
#010320:25
#011340:16260000
#011320:0036000000000000
#011360:00001636
#011380:0000000000360000
#012360:26
#013380:00000013
#014380:23
#014320:0000000000000014
#015350:34340000
#015320:0034002400000000
#0153b0:00000013
#016380:23
#015351:00000013
#016321:23
#018351:1300333300332300
#018321:0033
#018381:0000000000000013
#0193b1:0033000033000000
#019381:00330023
#021351:00000013
#022351:23
#0223a1:0000000000000014
#023371:34340000
#0233a1:0034002400000000
#023321:00000013
#024351:23
#023380:00000013
#0243b0:23
#026380:13
#0263b0:00230000
#026350:0013
#026320:00000023
#028380:13230000
#0283b0:0033000000000000
#028350:0000001300230000
#028320:0033
#029340:0000000014342400
#0313a0:0000000014342400
#032350:13230000
#032320:0033000000000000
#032380:0000001300230000
#0323b0:0033
#0343b0:13
#034370:00230000
#034361:13
#034321:00230000
#034321:0013
#034361:00000023
#034370:0013
#0343b0:00000023
#035320:13000023
#035360:0000005300000000
#035371:13000023
#0353b1:0000005300000000
#037321:000000000000000000000000143434000000000000000000
#037341:0000000000240000
#038331:00000013
#039321:25
#0383a0:00000013
#039390:25
