This file was generated by Ched 2.7.0.0.
#TITLE ""
#ARTIST ""
#DESIGNER ""
#DIFFICULTY 0
#PLAYLEVEL
#SONGID ""
#WAVE ""
#WAVEOFFSET 0
#JACKET ""
#REQUEST "ticks_per_beat 480"
#00002: 4
#BPM01: 132
#00008: 01
#TIL00: ""
#HISPEED 00
#MEASUREHS 00
#00015:00000013000000001200000000000000
#00018:00130014
#00012:0000001300000000
#0001b:0013
#00014:0000000000000014
#00019:0000001200000000
#0001c:0000000000000012
#00112:0000000013000012
#00114:00000014
#00118:00000013000000000000000000001300
#00115:0000131200000000
#0011b:0000001300000000
#00119:0012
#00110:41
#00215:00000013000000000000000000000000
#00218:0000131400000000
#00412:1414000000000012
#00414:00140012
#00416:000000000000000000140000140014000000000000000000
#0041a:140000000000120000000000001300000000000000000000
#00413:0000000000130000
#00418:0012000000000000
#0041c:0000001200000000
#00419:00000013
#00417:0000000000000013
#00512:1614
#00518:0013000000000012
#0051a:00131400
#00514:0012001600000000
#0051c:1200001200001200
#00516:00120000
#00515:00000013
#00510:0041
#00616:00000012000000000000000000001300
#00618:0012120016000000
#00612:0000001612001300
#00617:00000013
#0061b:0000000000000013
#0061a:0000001200000000
#00712:0013001300000013
#0071b:0000001300130013
#00715:1313000013001300
#00718:1300000013131300
#0121b:0013001300001300
#01218:0000130016000013
#01214:0000120012160000
#01212:0000001200000014
#01216:00000012000000000000000012000000
#01314:12
#01312:0012140000001200
#01316:0000001400000000
#0131b:13
#0131c:0000121200000000
#0131a:00000014
#01714:0000001200001400
#0171a:00140012
#01718:0000001400000012
#01712:1312
#01716:00121400
#01719:1212000000000000
#0191a:0000000000131200
#01917:00001300000000000000000000120000
#01914:0000000000000012
#01912:0013000000000000
#0191b:00130000
#01916:00130000
#01913:00000000000000000000001300000000
#01910:41
#01816:0000000000001213
#0181b:0000000000000013
#0201b:13
#02015:0013130000001200
#02018:00000012000000120000000000000000
#02014:0000001300000000
#02013:0013
#02012:1300000000130012
#02017:0000000000000013
#02019:00000012
#0201c:00000000000000000012000000000000
#0201f:11
#02114:1200001300000000
#02116:0012120000000000
#02119:0000001300000000
#02112:00000014
#0211c:00000012
#02716:12120000
#02718:12120000
#02714:00000028
#02812:0000001300131300
#0281b:0000130000000013
#02815:00001300130000000013000000000000
#02818:00000013000000001300130000000013
#0281f:21
#02917:0013001300000000
#0291b:00130000
#02912:0013001314242400
#02915:13
#02916:00130000
#0291a:0000000000340000
#02910:41
#03118:0012000000000000
#03116:00000012000014000000340000000000
#03112:0000140000242400
#0311a:0014
#0311b:13
#03616:0014000014002200
#03617:0000121200120000
#0361b:0013130000000000
#03612:0013
#03614:12
#0361a:12
#03618:00000022
#03716:000000140000000000120000140014000000000000000000
#03718:0000140000000012
#0371a:0000001400131200
#03714:00120014
#03712:0012000000000014
#03713:000000000000000000000000001300000000000000000000
#03814:0014000000000000
#03816:00140022
#03812:1c0000121c000000
#0381a:0012000000000000
#0381c:00120000
#03818:0000001600002200
#0031a:00000000000000001400001200000000
#00314:0000000000121200
#00315:0000000000000013
#00318:00000000000000000000000000000013
#0081a:0014000000131200
#00818:00140000
#00816:000000120000000000140000140014000000000000130000
#00813:000000000000000000000000001300000000000000000000
#00814:00120013
#00812:0000001200000000
#0081c:0000000000000012
#00918:16120013
#00915:0013000000000000
#00913:00130000
#00916:0000001600000012
#00912:1200001214001200
#0091a:0012000014000000
#01018:00000012000016000000000000000000
#01016:0012120000001300
#01012:0000000016000013
#0101b:00000013
#01017:0000000000000013
#01014:0000001200000000
#0101c:0012
#01010:41
#0111b:0013001300000013
#01112:0000001300130013
#01118:1313000013001300
#01115:1300000013131300
#01612:0016001216001300
#01616:0000120000160000
#0161a:0000120012000014
#01615:0000000000000013
#01618:00000012000000000000000012000000
#0161c:0000001200000000
#02518:00120014
#02514:0000001400001200
#02516:0000000014000012
#02512:00140000
#0251b:13
#0251a:0000001200000000
#0251c:0012
#02515:1212000000000000
#02618:0000000000001216
#02612:0000000000000016
#0331a:0000000014242412
#03314:0000000000000012
#03316:0013001300000000
#03312:0000130000340000
#0331b:0013001300000000
#03318:13
#03317:00130000
#03418:1600161216000000
#0341c:0012000000120000
#03412:161216001612001c
#03416:0000001200000000
#03517:1200120012170012
#03512:001c131c00001700
#03513:0000000000120000
#0351b:00001312
#03018:16001300130000000013000000000000
#03015:12000013000000001300130000000000
#0301b:0000001300131300
#03013:0000000000000013
#03012:00130000
#03017:00000000000000000000000000000013
#03212:1600130000000013
#03219:12
#0321b:0000001300131300
#03218:00001300130000000013000000000000
#03215:00000013000000001300130000000013
#02218:0013130000000000
#02216:00000012000000120000000000001300
#02219:0000001300001200
#0221a:0013
#0221b:0000000000130000
#02215:00000012
#02212:00000000000000000012000000000000
#0221c:0000000000000012
#02319:0000001300000000
#02318:0012120000001200
#02314:0000001300000000
#0231a:12
#0231c:0000000000000012
#02315:00000013
#0391a:0000000000000012
#03914:0000000000000012
#04017:12
#01412:0013001316001300
#01415:0000130000000013
#01416:0000000000160000
#0141a:0000120012000014
#01418:00000012000000000000000012000000
#0141c:0000001200000000
#01410:0041
#0151a:12140000
#0151c:0012000000001200
#01516:0000001400000000
#01512:1300121200001400
#02418:0016120016000013
#0241c:0000001200000000
#02414:0000120012160000
#02412:0000001200000014
#02416:00000012000000000000000012000000
#0241b:00000013
#00058:00000014
#00154:00000014
#00755:5323000053005300
#00758:5300000053235300
#00752:0023000000000023
#0075b:0000000000230023
#01258:0000000000000063
#0135b:23
#0135a:00000054
#01352:00000052
#02756:22220000
#02758:22224600
#02752:0036
#00652:33
#0065c:42
#03752:34
#0375a:44
#03958:46
#03952:36
#0045a:14
#00452:14
#0055c:00000062
#00558:0000000000000022
#00555:00000023
#00952:00000052
#00956:0000000000000022
#00958:00000023
#0105b:43
#01052:32
#01158:6323000063006300
#01155:6300000063236300
#0115b:0023000000000023
#01152:0000000000230023
#01458:14
#01456:12
#01455:0000000000000053
#01655:0000000000000053
#01654:14
#01658:12
#01752:2312
#01756:0014
#02057:0000000000000053
#02152:00000064
#0215c:00000062
#02254:14
#02258:12
#02256:0000000000000063
#0225b:0000000000430000
#02952:0000000000343400
#03152:0000000000343400
#0315a:0054
#03858:00000022
#03856:00000022
#02855:00330000
#02854:18
#02858:0000000000430000
#03458:6600662266000000
#0345c:0022000000220000
#03452:5622560056220000
#03456:0000002200000000
#0365b:0013130000000000
#03652:0013
#02658:0000000000000056
#02652:0000000000000056
#03058:00430000
#03055:0000000000330000
#03258:00430000
#03255:0000000000330000
#0335a:0000000000444400
#0185b:0000000000000023
#01856:0000000000000023
#01957:0023000000000000
#01952:0023000000000000
#01956:00230000
#0195b:00230000
#02358:00000062
#0235c:0000000000000022
#02355:00000063
#02458:1200000000000063
#02452:13
#01552:23000064
#0155c:00000062
#0255b:23
#02556:0014
#0255c:0012
#000320:1424000000000000
#0003a1:1424000000000000
#001321:1222000000000000
#001380:1424000000000000
#002340:1424000000000000
#0023c1:1222000000000000
#002371:0000000012220000
#0023a0:0000000014240000
#002320:0000000000001424
#002371:0000000000001222
#0033a1:14
#003361:00240000
#003320:00140000
#003360:0024
#005350:00000013
#006320:23
#0053c1:00000012
#005381:0000000000000052
#0063c1:22
#007381:13230000
#007351:0033000000000000
#007350:13230000
#007320:0033000000000000
#007350:00001333
#007380:0000000000330000
#007320:0000000000000053
#008350:23
#007381:00001333
#0073b1:0000000000330053
#008381:23
#009381:00000013
#0103b1:23
#009320:00000012
#009360:0000000000000052
#010320:22
#011350:13230000
#011380:0033000000000000
#011381:13230000
#0113b1:0033000000000000
#011381:00001333
#011351:0000000000330000
#0113b1:0000000000000053
#012381:23
#011350:00001333
#011320:0000000000330053
#012350:23
#012380:0000000000000013
#0133b0:33
#013380:0023000000000000
#013320:0000000014240000
#013381:0000000012220000
#0133a1:00000014
#014381:24
#013320:00000012
#014360:22
#014350:0000000000000013
#015320:33
#015350:0023000000000000
#0153a0:0000000014240000
#015361:0000000012220000
#015321:00000014
#016341:24
#0153c0:00000012
#016380:22
#016350:0000000000000013
#017320:33
#017350:0023000000000000
#018320:1424000000000000
#0183c1:12220000
#018340:00120000
#018360:0000002200000000
#018381:0000001200000000
#0183a1:0022
#018320:0012
#018360:0000000000220000
#018381:0000000000120000
#0183c1:00000022
#018361:0000000000000013
#019321:0033000023000000
#019361:00330000
#0183b0:0000000000000013
#019370:0033000023000000
#0193b0:00330000
#020370:0000000000000013
#0213b0:00230000
#021320:0000000012220000
#021351:0000000014240000
#021321:00000014
#022341:24
#0213c0:00000012
#022380:22
#022360:0000000000000013
#023320:00230000
#0233c0:0000000012220000
#023371:0000000014240000
#023381:00000012
#0233c1:0000000000000032
#024381:22
#023350:00000013
#024320:23
#024380:0000000000000013
#0253b0:33
#025380:0023000000000000
#0263a0:1424000000000000
#026321:12220000
#0263a0:00120000
#026380:0000002200000000
#026361:0000001200000000
#026341:0022
#0263c0:0012
#026380:0000000000220000
#026361:0000000000120000
#026321:00000022
#026321:0000000000000016
#027361:52
#027321:0026000000000000
#026380:0000000000000016
#027380:5226000000000000
#027360:00120000
#027320:0026
#027381:00122600
#027341:00000018
#028341:28
#029361:0014
#0293a1:0000000000342400
#0313a1:0014
#031361:0000000000342400
#033361:0014
#033321:0000000000342400
#034381:1600365236002600
#0343c1:0052000000520000
#034320:1652360036522600
#034360:0000005200000000
#036360:00000012
#037320:24
#036381:00000012
#0373a1:24
#038361:00000012
#039321:26
#038380:00000012
#039380:26
