This file was generated by Ched 2.7.0.0.
#TITLE ""
#ARTIST ""
#DESIGNER ""
#DIFFICULTY 0
#PLAYLEVEL
#SONGID ""
#WAVE ""
#WAVEOFFSET 0
#JACKET ""
#REQUEST "ticks_per_beat 480"
#00002: 4
#BPM01: 132
#00008: 01
#TIL00: ""
#HISPEED 00
#MEASUREHS 00
#0001a:14
#00014:14
#00118:14
#00112:14
#00110:41
#0021a:14
#00218:0014
#00214:14
#00212:0014
#0031a:14
#00314:00140000
#00318:0014
#00312:00000014
#00414:0014
#0041a:24
#00518:14
#00512:0014
#00510:0041
#00812:14
#00818:0014
#00914:14
#0091a:0014
#01318:1414
#01312:00140000
#01214:0014
#0121a:24
#01412:14
#01418:0014
#01410:0041
#01514:1414
#0151a:00140000
#0161a:14
#01612:0014
#0171a:14
#01716:00140000
#01712:0014
#02012:2414
#02018:2414
#0201f:11
#0211a:14
#02118:0014
#02112:00140000
#0221a:1414
#02214:1414
#00618:1614
#00612:0014
#00712:16
#00714:0014
#0071a:0014
#01012:16
#01014:0014
#0101a:0014
#01010:41
#01118:1614
#01112:0014
#02312:14
#0231a:00140000
#02314:0014
#02412:14
#02414:0014
#0241a:0014
#02418:14
#02512:14
#02516:00140000
#0251a:0014
#03515:00160000
#03614:00141400
#03619:00000014
#03618:0014001400000000
#03613:00000014
#03713:00000014
#03719:00000014
#0371a:14
#03717:00340000
#03819:00000014
#03813:00000014
#03812:14
#03815:00340000
#03914:0000000000000014
#03912:24
#0391a:24
#04018:14
#03312:00001414
#03314:14140000
#0331a:14140000
#03318:00001414
#02912:00140000
#02918:14
#0291a:0014
#02910:41
#0311a:00140000
#03114:14
#03112:0014
#01812:00000014
#01818:00000014
#01819:00340000
#0191a:00000014
#01914:00000014
#01913:00340000
#01910:41
#0261a:00000014
#02614:00000014
#02613:00340000
#02712:00000014
#02718:00000014
#02719:00340000
#03418:26
#03416:00260000
#03414:0026
#03412:00000026
#03413:0000000000000036
#02814:0024
#0281a:24
#0281f:21
#03218:24
#03214:0024
#00752:16
#00658:16
#01052:16
#01158:16
#03555:00260000
#03452:00000066
#03852:64
#0375a:64
#0325a:00140000
#03252:00000014
#0285a:00140000
#02854:00000014
#03052:00140000
#03058:00000014
#0183a0:14
#018390:00340000
#018380:0024
#019320:14
#019330:00340000
#019340:0024
#026320:14
#026330:00340000
#026340:0024
#0273a0:14
#027390:00340000
#027380:0024
#0283a0:14240000
#028340:00001424
#030320:14240000
#030380:00001424
#032380:14
#0323a0:00240000
#032340:0014
#032320:00000024
#034320:00000016
#034330:0000000000000036
#035350:00560000
#035320:00000026
#0373a0:14
#037370:00342400
#038320:14
#038350:00342400
