This file was generated by Ched 2.7.0.0.
#TITLE ""
#ARTIST ""
#DESIGNER ""
#DIFFICULTY 0
#PLAYLEVEL
#SONGID ""
#WAVE ""
#WAVEOFFSET 0
#JACKET ""
#REQUEST "ticks_per_beat 480"
#00002: 4
#BPM01: 120
#00008: 01
#TIL00: ""
#HISPEED 00
#MEASUREHS 00
#00213:14
#00319:14
#00413:14
#0051a:14
#00614:14
#00718:14
#00710:41
#00812:14
#0091a:14
#01014:14
#01118:14
#01212:14
#01318:14
#01310:41
#01418:14
#01514:14
#01614:14
#0171a:14
#0181a:14
#01912:14
#01910:41
#02012:14
#03018:2616
#0301f:21
#03212:1616
#02918:14
#02914:0014
#03412:0016
#03418:16
#03618:0016
#03612:16
#03818:14
#03914:14
#0401a:14
#04112:14
#04314:14
#0441a:14
#04512:14
#00119:14
#00110:41
#04218:14
#04210:41
#02814:0014
#04918:00001414
#04914:0000000000140000
#0221a:0014
#02412:0014
#02618:0014
#0211f:11
#03110:41
#0213a0:14
#0223a0:24
#023320:14
#024320:24
#025380:14
#026380:24
#027340:14
#028340:24
#031380:1626
#033320:1626
#035380:1626
#037320:1626
#046390:14
#047390:24
#048330:14
#049330:24
