This file was generated by Ched 2.7.0.0.
#TITLE ""
#ARTIST ""
#DESIGNER ""
#DIFFICULTY 0
#PLAYLEVEL
#SONGID ""
#WAVE ""
#WAVEOFFSET 0
#JACKET ""
#REQUEST "ticks_per_beat 480"
#00002: 4
#BPM01: 120
#00008: 01
#TIL00: ""
#HISPEED 00
#MEASUREHS 00
#00515:23000000130000130000000013000000
#00512:0013000000130013
#00518:0013001300000013
#0051b:00130000
#03012:0000130000130000
#0301b:23000000000000001300000000130000
#03015:00000013000013001300000013001300
#03018:00001300130000130000001300000013
#03016:23
#0301f:21
#03817:00130013
#03812:23130000
#03818:26000000000000130000000000000000
#0381b:0013000000130013
#03815:0000001300000000
#03816:0013000000000000
#0131b:23131313
#01318:0013000000000000
#01312:23131313
#01315:0013000000000000
#01316:0000000000140014
#01310:41
#02919:00000000140014001400000000120000
#02916:00000012
#02912:13
#02917:13
#02914:0000000000000012
#02913:0000141414000000
#03112:1300000013140000
#0311a:00000000003300000000001400000000
#03114:0033001300000013
#03119:0013003300000013
#0311b:00130000
#03116:00000024
#03113:00330000000000000000000000000000
#03115:00000033000000000000000000000000
#03118:00000000000000330000000000000000
#03110:41
#00012:0013
#0001b:0000000000130000
#00015:00000013
#00018:0000000000000013
#00118:00001300000000130000000013000013
#00115:00000013000013000000001300000000
#0011b:0000130000130000
#00112:2300000013000013
#00110:41
#00215:1313000013000000
#0021b:00130013000000000000000000000000
#00212:00000000130013000000001400000000
#00218:00000000001300130000000000000000
#0021a:0000000000140000
#00216:00000014
#00412:0000160013141500
#0041b:0013
#0041a:0000000000140000
#00415:00001300000000130000000000001300
#00418:16000000000013000000000000000013
#00419:00000013000000000000000015000000
#00312:13
#00315:0000001300001300
#00318:00000000000000130000000000001300
#00314:00000000000000000000000000000013
#02012:1300001300130013
#02017:0000000000130013
#0201b:0013000013000000
#02019:00130000
#02016:0013
#02014:00130000
#02116:00000013000000000000000013000000
#0211b:0013130000001300
#02119:2300001300000000
#02117:0013
#02114:0000000000000013
#0211f:11
#02217:0013000000000000
#02212:1313130000000000
#02214:0000001300000000
#02216:0013
#02312:00130000
#02315:0000001300000013
#0231b:0000000000130000
#02418:0013000000000000
#02412:0000001300000000
#02416:00001313
#0241b:00131313
#02419:0000000000000013
#02417:0000001300000000
#02512:0013000000001300
#02517:0013000000001300
#0251b:0013
#02519:0000001300000000
#02518:23130000
#02514:0000000000000013
#0261b:0013000000000000
#02615:13130000
#02616:0013000000000000
#02612:0013
#02614:0000001300000000
#0271b:00131313
#02717:0000001300130013
#02716:00131313
#02712:0000001300130013
#02816:0000001300001300
#02817:0013
#02812:0013
#02819:0000000000000013
#0281b:0000001300001300
#02814:0000000000130000
#04912:0012
#04915:0000000000121200
#0491c:0012
#04919:0000000000121200
#04913:12
#04917:0012001200000000
#0491b:00120000
#00614:0000000000130000
#0061b:13131300
#00616:0013
#00612:00000013
#00619:0000000000130000
#00617:0013001300001300
#00618:0000000000000013
#00615:00000000000000000000000000000013
#00718:23000000130000130000000013000000
#0071b:0013000000130013
#00715:0013001300000013
#00712:00130000
#00710:41
#00812:13131300
#00816:0013001300000000
#0081b:00000013
#00817:0013
#00815:0000000000000013
#00818:00000000000000000000000000000013
#04616:0013000000000000
#0461b:0013130000000000
#04617:0000001300000000
#04612:2300001313001300
#04615:0000000000130013
#04717:0013000000000000
#04712:0013130000000000
#04716:0000001300000000
#0471b:1300001313001300
#04718:0000000000130013
#04715:00000000000000000000000000000013
#04817:0013000000130000
#04819:00130013
#0481b:2300001300000013
#04816:0000001300000013
#04812:0013000000130000
#04814:0013
#00912:2300130013130000
#0091b:0013000000001313
#00918:0000001300000000
#00915:00000000000000130000000000000000
#00916:0013000000000000
#00917:00130000
#0101b:0013000013000000
#01012:0013001300001300
#01015:13000000130000000000000000000013
#01018:1300130000000013
#0111b:23000000130000001300130013000013
#01115:0000001300000000
#01118:00000000000000130000000000000000
#01112:0013000013000013
#01116:00130013
#01114:0000000000130000
#01117:0013000000000000
#01218:13130013
#0121b:0013001300000000
#01215:1300130000000013
#01212:0013000000000000
#01716:0013001300000000
#01712:26130000
#01717:0000000000130013
#0171b:00000013
#01912:1300000000000013
#01916:00130000
#01917:13000013
#0191b:0000001313000000
#01910:41
#0321b:00130013
#03212:2313
#03215:00001300130000130000130013000000
#03218:00000013000013001300001300000000
#03217:2300000000000013
#0331b:1313
#03316:00001300000000000000000000000012
#03312:00130000
#03318:0000000000000012
#03317:0000001300000000
#0341b:0000130000130000
#03412:24000000140000001300000000130000
#03418:00000013000013000000000013001300
#03415:00001300000000130000001300000013
#0341a:2414
#0351a:1400141400140000
#03512:00140014000000140000001400000000
#03516:00001400001400001400000024000000
#03514:0000000000000013
#03519:0000000000000013
#03612:2400140014001413
#03619:0013000000130000
#03616:00000013000000000000001300000000
#0361a:24141414
#03614:0000001300000000
#03617:00000000000000130000000000000000
#03615:00000000000000000000000000000013
#01516:0000001400000014
#01514:00130000
#01512:0013000000000000
#01518:0013
#01519:00000013
#0151b:0000000000130000
#01812:0013001300000000
#01816:00130000
#0181b:0000000000130013
#01817:00000013
#03718:13000013000000001300000000001300
#03715:00000000130000130000000000000013
#03712:0000001300000000
#0371b:0013000000000000
#01412:1300000000000013
#0141b:0000001300000000
#01419:0000000000130000
#01418:00000013
#01417:0000000000000013
#01416:0000001300000000
#01415:0013
#01414:0000000000130000
#0391a:00000013
#03914:0000000000130000
#03912:0013130000000000
#03916:1300001300000000
#03917:0013000000000000
#0391b:1300001300000000
#03918:00000000000000001300000000000013
#03915:0000000000000013
#04016:00130013
#0401b:23130000
#04015:00000000000000130000000000000000
#04012:2613000000130013
#04018:0000001300000000
#04017:0013000000000000
#0411b:0013130000000000
#04117:1300001300001300
#04116:0013000013000000
#04112:1300001300000000
#04115:0000000000000013
#04118:00000000000000000000000000000013
#0421b:2300130000131300
#04212:2313000013000013
#04216:0014140000001300
#04218:00000000000000130000000000000000
#04215:0000001300000000
#04210:41
#04312:0013001300000000
#04315:13000000000000001300000000000013
#0431b:0013001300000000
#04318:1300130000000013
#04313:00000013
#04319:0000000000130000
#04412:2300130000130013
#04415:00000000000000130000000000000000
#04418:0000001300000000
#0441b:23001300000000001300000000000013
#04416:0014140000000000
#04417:0000000000130000
#0451b:0013001300000000
#04518:13001616
#04512:0013001300160000
#04515:13130000
#01616:13131300
#0161b:13131300
#01612:0013001300000000
#01617:0013001300000000
#02156:00000023000000000000000000000000
#02152:0033
#0215b:00000053
#02052:0000000000230063
#02056:0053
#0205b:0053
#02057:0000000000230000
#02257:0023000000000000
#0225b:0043
#02456:00001353
#0245b:0013
#02552:0023000000000000
#0255b:0043
#02557:00000063
#0265b:0023000000000000
#02652:0033
#02757:0000005300530053
#0275b:00535353
#02756:00535353
#02752:0000005300530053
#00256:00000014
#00852:0063
#0085b:00000013
#00652:00000013
#01052:00000013
#01058:63630000
#0105b:0063000000000000
#01255:53530000
#01252:0053000000000000
#0115b:00000013
#01952:53
#01956:00230000
#0195b:0063
#01957:00000023
#03152:53
#03156:00000014
#0315b:00630000
#02952:13
#02957:13
#03556:00000014
#0135b:00230000
#01358:0053000000000000
#01352:00230000
#01355:0063000000000000
#01556:0000001400000014
#01452:53
#03954:0000000000330000
#0395a:00000043
#03956:0000002300000000
#03957:0023000000000000
#03952:00530000
#0395b:53
#03958:0043
#0415b:00634300
#04157:0000002300000000
#04156:0023000053000000
#04152:63
#04252:0023
#0425b:00000023
#04352:0023000000000000
#04355:5333
#0435b:0000002300000000
#04358:00630000
#04353:00000033
#04359:0000000000430000
#0445b:00002313
#04457:0000000000530000
#04452:0000000000530000
#04456:00000013
#0455b:0023000000000000
#04558:63
#04552:0000002300000000
#04555:00530000
#000380:13332300
#0033b0:13
#003380:0023000000000000
#003351:0013000000000000
#003321:00230000
#0033b0:00130000
#003380:0000002300000000
#003320:0013
#003350:0000000000230000
#003381:0000000000130000
#0033b1:00000023
#0053b1:00001323
#005371:0000000000330000
#006361:13330000
#006321:0033002300000000
#007321:00001323
#007361:0000000000330000
#008371:13330000
#0083b1:0033002300000000
#008321:0013
#008361:00000023
#0093b1:0013
#009371:0000000000230000
#009321:00000013
#009361:0000000000000023
#010381:13330000
#0103b1:0033002300000000
#010361:0013
#010341:0000000000230000
#010390:0000000000130000
#010370:00000023
#012350:13330000
#012320:0033002300000000
#012380:0013
#0123b0:0000000000230000
#012351:0013
#012321:0000000000230000
#013381:0013002300000000
#0133b1:00530000
#013350:0013002300000000
#013320:00530000
#014320:13
#014360:00230000
#0143b1:13230000
#015371:0013000000000000
#0153b1:0000002300000000
#015361:0000000000130000
#015321:0000000000000023
#016361:00000013
#016321:0000000000000023
#0163b0:00000013
#016370:0000000000000023
#0173b0:0013002300000000
#017370:00330000
#017320:0000000000130023
#017360:00000033
#018370:0013002300000000
#0183b0:00330000
#018360:0000000000130023
#018320:00000033
#019320:1323
#019360:00530000
#0193b1:0013
#019371:00000053
#0203b1:23
#020361:00001323
#020321:0000000000530000
#0203b0:00001323
#020370:0000000000530000
#020320:0000000000000013
#021360:00000053000000000000000000000000
#021320:0023
#0213b0:00000013
#022370:0053000000000000
#0223b0:0023
#0223b0:00000013
#0223a0:00000000000000000000000000330000
#022390:0000000000000033
#022380:00000000000000000000000000000033
#023370:23
#022361:00000013
#022351:00000000000000000000000000330000
#022341:0000000000000033
#022331:00000000000000000000000000000033
#023321:23
#023381:00132300
#023320:00001323
#0233b1:00000013
#0243b1:23
#024350:13230000
#024360:00000013
#025320:0053000000000000
#025360:0023
#025370:00000013
#0263b0:0053000000000000
#026370:0023
#0263b0:00000013
#0263a0:00000000000000000000000000330000
#026390:0000000000000033
#026380:00000000000000000000000000000033
#027370:23
#026361:00000013
#026351:00000000000000000000000000330000
#026341:0000000000000033
#026331:00000000000000000000000000000033
#027321:23
#0273b1:00133333
#027371:0000003300330033
#0283b1:23
#027360:00133333
#027320:0000003300330033
#028360:23
#031320:13
#031330:00330000000000000000000000000000
#031340:0033000000000000
#031350:00000033000000000000000000000000
#031360:00230000
#0313b1:00130000
#0313a1:00000000003300000000000000000000
#031391:0000003300000000
#031381:00000000000000330000000000000000
#031371:0023
#032321:0000000000000013
#032341:00000000000000000000000000000033
#033361:23
#0333b1:0013000000000000
#033391:00000033000000000000000000000000
#033371:00230000
#033321:0000001300000000
#033341:00000000000000330000000000000000
#033361:0023
#038321:0013
#038361:0000000000230000
#038321:00000013
#038361:0000000000000023
#0393b1:13230000
#039371:0053000000000000
#039320:00132300
#039360:0000005300000000
#0403b0:0013
#040370:0000000000230000
#0403b0:00000013
#040370:0000000000000023
#041320:13230000
#041360:0053000000000000
#0413b1:00132300
#041371:0000005300000000
#041360:0013
#041320:00000023
#042320:0013
#042360:0000000000230000
#0423b0:00000013
#042370:0000000000000023
#043350:13230000
#043320:0053000000000000
#043381:00132300
#0433b1:0000005300000000
#0443b1:00001323
#044371:0000000000330000
#044320:0000000000130000
#044360:00000023
#045380:13230000
#0453b0:0053000000000000
#045351:00132300
#045321:0000005300000000
#0463b1:00001333
#046381:0000000000330023
#047321:00001333
#047351:0000000000330023
