This file was generated by Ched 2.7.0.0.
#TITLE ""
#ARTIST ""
#DESIGNER ""
#DIFFICULTY 0
#PLAYLEVEL
#SONGID ""
#WAVE ""
#WAVEOFFSET 0
#JACKET ""
#REQUEST "ticks_per_beat 480"
#00002: 4
#BPM01: 120
#00008: 01
#TIL00: ""
#HISPEED 00
#MEASUREHS 00
#00512:00130000
#00518:0013000000130013
#0051b:0000001300000000
#00515:23001313
#03018:2300001313000013
#03012:2313
#03015:0013130000131300
#0301b:00130013
#0301f:21
#0311b:0000000000130000
#03112:13
#03115:00000033333300000000001300000000
#03118:00000023
#03113:00330000000000000000000000000000
#03114:0033000000000000
#03116:00000000000033330000000000000000
#03110:41
#00015:0000000013130000
#00018:0000000000001313
#00012:13130000
#0001b:13130000
#0011b:0013000000130000
#00115:00130013
#00118:0000001300000013
#00112:2313
#00110:41
#00212:13
#00215:0013000013000000
#00218:0000130000131300
#0021b:0000001300000000
#02716:00130013
#02712:0013
#0271b:00130013
#02717:0013
#02714:0000003300330033
#02719:0000003300330033
#02915:1300001300000000
#02918:00130000
#02912:0013
#0291b:0013
#04912:0012
#04915:1200120000121200
#0491c:0012
#04919:0012001200121200
#0121b:0000000000000013
#01212:00000013
#01215:0013
#01218:0000000000130000
#0191b:13
#01918:00000013000000000000000000000000
#01910:41
#0201b:13001313
#02018:0013000000000000
#02012:0000001300000000
#02015:00131313
#02815:0013
#02812:00000013
#0281b:0000001300000013
#02818:0000000000130000
#01318:0013000000130000
#01315:2313
#0131b:0000000000000013
#01312:00000013
#01310:41
#0151b:0000001300130000
#01515:0000130000130000
#01512:0013000013000013
#01518:0013000000001300
#00315:0000000000000013
#0031a:0000000000330000
#00412:1300130013131300
#0041b:1300130013131300
#00418:0013000000000000
#00415:0000001300000000
#00612:1314
#00615:0013000000000000
#0061b:00130000
#00618:0000001300140000
#00614:00000014
#0071b:00130000
#00715:0013000000130013
#00712:0000001300000000
#00718:23001313
#00710:41
#0081b:13
#00818:0013000000000000
#00812:00130000
#00815:0000001300000000
#0081a:0014
#00918:00130013
#00915:0013000000130000
#00912:2300001300000013
#0091b:2313
#0101a:0014
#01014:0000000000140000
#01018:00000014
#01115:00130013
#01118:0013000000130000
#0111b:2300001300000013
#01112:2313
#01412:13
#01418:13
#01615:00000013
#01618:0000000000000013
#0241b:00130000
#02415:1300001300000000
#02412:00130000
#02418:0013000013000000
#02312:00130013
#0231b:00130013
#02318:0000000013000013
#02315:0000001300130000
#03415:2300001313000013
#0341b:2313
#03418:0013130000131300
#03412:00130013
#03512:0000000000130000
#0351b:13
#03518:00000033333300000000001300000000
#03515:00000023
#0351a:00330000000000000000000000000000
#03519:0033000000000000
#03517:00000000000033330000000000000000
#03618:2300001300000013
#03612:23131313
#03615:00001300000000000000130000000013
#0361b:00131313
#0371b:1313
#03718:00000013000013000000130000000000
#03715:00001300000000130000000000000000
#03712:00130000
#04615:0013000000000000
#0461b:00130013
#04618:0000001300000000
#04612:2313
#04818:0013000000000000
#0481b:0013
#04815:0000000000130000
#04812:23
#03215:2300001300000013
#0321b:23131313
#03218:00001300000000000000130000000013
#03212:00131313
#03312:1313
#03315:00000013000013000000130000000000
#03318:00001300000000130000000000000000
#0331b:00130000
#03818:23131313
#03815:0013000000130000
#0381b:0000001300000013
#03812:2313
#03912:0014
#03916:0000000000140000
#0391a:00000014
#04015:23131313
#04018:0013000000130000
#04012:0000001300000013
#0401b:2313
#04116:0000000000140000
#0411a:0014
#04215:2300131300000000
#0421b:2313000000000000
#04212:0000000013130000
#04218:0000000013001313
#04210:41
#0431a:0014
#04316:0000000000140000
#04312:00000014
#04418:2300131300000000
#04412:2313000000000000
#0441b:0000000013130000
#04415:0000000013001313
#04512:00001616
#04518:0000000000160000
#04712:0013000000000000
#04718:00130013
#0471b:0000001300000000
#04715:1313
#01812:0000000000140000
#0181a:0014000000000000
#01814:00000034
#01818:00340000
#01716:0014000000140000
#01712:24
#01714:00000034
#01718:00340000
#0211f:11
#02756:00530053
#02752:0053
#0275b:00530053
#02757:0053
#00258:00000013
#0195b:63
#01958:00000023000000000000000000000000
#03152:53
#03158:00000013
#02955:13
#02952:0063
#0295b:0053
#01358:0053000000000000
#00654:00000014
#0085a:0064
#01058:00000014
#02255:0013
#02158:0013
#0265b:0013
#02552:0013
#02458:0013
#0355b:63
#03555:00000013
#0375b:0053
#03758:0000000000230000
#03352:0063
#03355:0000000000230000
#0395a:00000014
#04156:0000000000240000
#0415a:0064
#04352:00000014
#04652:0063
#0465b:00000063
#04755:0063
#04758:00000053
#01756:0064000000640000
#0185a:0064000000000000
#01852:0000000000640000
#003320:13
#003330:0033000000000000
#003340:00330000
#003350:0000002300000000
#003380:0013
#0033a0:0000000000330000
#0033b0:00000023
#0083a0:0014
#008360:00000024
#0103b0:1323000000000000
#010350:0000132300000000
#012320:1323000000000000
#012380:0000132300000000
#013380:0013000000000000
#0133b0:0000002300000000
#014350:0000001300330023
#014320:00003333
#016380:13332300
#0163b0:0033003300000000
#017360:0014000000000000
#017380:00340000
#0173a0:0000002400000000
#017360:0000000000140000
#017340:00000034
#017320:0000000000000024
#0183a0:0014000000000000
#018380:00340000
#018360:0000002400000000
#018320:0000000000140000
#018340:00000034
#018360:0000000000000024
#0193b0:1300002300000000
#019380:00000053000000000000000000000000
#019350:0000000013000023
#020380:0000000000000013
#021380:3300003323000000
#0213b0:0033330000000000
#021350:0000000000001333
#022350:3300003323000000
#022320:0033330000000000
#0223b0:00000013
#0223a0:00000000000000000000000000330000
#022390:0000000000000033
#022380:00000000000000000000000000000033
#023370:23
#024320:0000000000001333
#025320:3300003323000000
#025350:0033330000000000
#0253b0:0000000000001333
#0263b0:3300003323000000
#026380:0033330000000000
#026360:00000013
#026350:00000000000000000000000000330000
#026340:0000000000000033
#026330:00000000000000000000000000000033
#027320:23
#027360:00130033
#027340:0000003300330033
#027320:0033
#028320:23
#0273b1:00130033
#027391:0000003300330033
#027371:0033
#028371:23
#029321:0013
#029351:00000023
#0293b0:0013
#029380:00000023
#031320:13
#031330:00330000000000000000000000000000
#031340:0033000000000000
#031350:00000033333300000000000000000000
#031360:00000000000033332300000000000000
#033320:00001323
#033350:0000000000530000
#0353b0:13
#0353a0:00330000000000000000000000000000
#035390:0033000000000000
#035380:00000033333300000000000000000000
#035370:00000000000033332300000000000000
#0373b0:00001323
#037380:0000000000530000
#039320:13
#039350:0023000000000000
#039380:00130000
#0393b0:0000002300000000
#0413b0:13
#041380:0023000000000000
#041350:00130000
#041320:0000002300000000
#0413a0:00001424
#041360:0000000000540000
#043350:1323000000000000
#0433b1:1323000000000000
#043321:0000132300000000
#043380:0000132300000000
#045380:1323000000000000
#045321:1323000000000000
#0453b1:0000132300000000
#045350:0000132300000000
#046320:0013
#046350:0000000000230000
#0463b0:00000013
#046380:0000000000000023
#047350:0013
#047320:0000000000230000
#047380:00000013
#0473b0:0000000000000023
#048350:0000132300000000
#048380:0000000000001323
