This file was generated by Ched 2.7.0.0.
#TITLE ""
#ARTIST ""
#DESIGNER ""
#DIFFICULTY 0
#PLAYLEVEL
#SONGID ""
#WAVE ""
#WAVEOFFSET 0
#JACKET ""
#REQUEST "ticks_per_beat 480"
#00002: 4
#BPM01: 120
#00008: 01
#TIL00: ""
#HISPEED 00
#MEASUREHS 00
#00516:00130000
#00512:0013001300000000
#00518:00000000000000130000000000000000
#00517:0013000000000000
#0051b:0000000013000013
#00515:23
#03012:00000000130000000000001300000000
#0301b:2300000013000013
#03019:00000013
#03018:00001300000000130000000000000000
#03015:00000013000013000000000000000000
#03014:00000000000000000000000000130000
#03016:00000000000000000000000000000013
#03017:0000000000130000
#0301f:21
#00118:00001300130000130000130013000013
#00115:26000013000013001300001300001300
#00112:00130013
#0011b:0013
#00110:41
#00212:13131313
#00215:00130013000013000000001300000000
#00218:00001300001300130000130000000000
#0021b:13131313
#00216:0000000000000014
#00412:1300130013001613
#00413:0000000000140000
#00415:00000000000000130000000000000000
#00418:00000013000000000000000016000000
#0041b:13131300
#00419:00000000000000000000140000000033
#00316:1300130000130000
#00312:0013001300000000
#00319:00000000000000130000000000000000
#00315:00000000000000000000000000000013
#0031b:00001313
#02016:0000140000000013
#02014:13
#0201b:0013001300000000
#02012:0013001300000000
#02019:13
#0211b:0013130000000000
#02116:2300001313001300
#02117:0000000000000013
#02112:00000013
#02115:0000000000160000
#0211f:11
#02418:13000013
#02417:0000000000000013
#02412:13000013000000000000000013000000
#02415:00130000130000000000000000000000
#0241b:0013000000000000
#02515:0013000000161300
#02512:0013
#02513:0000001300000000
#02514:00130000
#02516:2300000000000013
#0251b:00000013
#0271b:00130013
#02716:0000131300130000
#02712:1400001300000013
#02717:00001313
#02912:16160000
#02918:1616
#02915:00000000000000000000000016161600
#04912:0012
#04915:0000000000121200
#0491c:0012
#04919:0000000000121200
#04916:0012001200000000
#04918:12120000
#00616:1414141400000000
#0061b:00001300000013000013000013001300
#00612:13131313
#00615:0000000000130000
#00618:00000000000000001300001300000000
#00614:00000000000000000000000000000033
#0091b:0013001300001313
#00915:00000000000000130000000000000013
#00912:2300000013130000
#00916:0013000000000000
#00917:00130000
#00918:00000000000000000000001300000000
#01215:13000016000013000016000000001300
#01218:00001600000000130000000013000000
#0121b:1300000013130000
#01212:0000160013130000
#01118:00000000000000130000000000000013
#01112:0013001300000013
#01117:0013000000000000
#01116:00130000
#0111b:2313
#01912:1300000013000013
#0191b:1300001313000000
#01917:00000000000000000000001300000000
#01916:00000013000000000000000000000000
#01910:41
#03318:0000000000000012
#03316:00000000000000000000130000000012
#0331b:13131300
#03312:13131300
#03315:00001616000016160000000000000000
#03319:0000000000130000
#03317:00000013
#03116:0000000000130013
#0311b:13000013000000001300000000001300
#03112:13131323
#03118:00130000000000130000000000000000
#03115:0000001300000000
#03117:00000023
#03110:41
#0151b:0013001300001300
#01516:0013130000000000
#01512:0000130013130013
#01517:0000000000131300
#01515:00000000000000130000000000000000
#01519:0013
#01518:00000000000000000000000000000013
#0371b:0000000000000013
#03715:00000000000000000000130000000013
#03712:14000014000000001400000000000000
#03716:14141400
#0371a:00000000140000140000000000000000
#03718:0000000000130000
#0131b:23131300
#01312:23131300
#01319:0000000000130013
#01314:0000000000130013
#01316:00000014
#01315:0013000000000000
#01318:0013000000000000
#01310:41
#01412:1300000000000012
#01415:0013000013120000
#0141b:1300001300000000
#01418:0013000000001200
#01419:0000000000130000
#01413:00000013
#01416:0000000000000013
#01417:0000001200000000
#0141a:0012
#03916:00000000000000000015000013000000
#03914:0000000000130000
#03912:1300000013000013
#03918:00001300001300130000000000000013
#03915:00130013000013000000000000000000
#0391b:00130000
#03919:00000000000000000000001500000000
#04412:2300130013000013
#04418:00000000000000001300000000000013
#0441b:0000001300130000
#04417:0013000000000000
#04415:00000000000000130000000000000000
#04416:0000000000130000
#04519:0013000000140000
#04518:00000000130000130000000016000000
#04512:00130000000000001300000016000000
#04515:13000013000000000000000000000000
#04514:0000001300000000
#0451b:13000000001300001300000000000000
#04513:0000000000140000
#0001b:1300130000000013
#00015:0000000016161600
#00717:00130000
#0071b:0013001300000000
#00715:00000000000000130000000000000000
#00716:0013000000000000
#00712:0000000013000013
#00718:23
#00710:41
#00816:1414141400000000
#00812:00001300000013000013000013000000
#0081b:13131313
#00815:00000000000000001300001300001300
#00818:0000000000130000
#00819:00000000000000000000000000000033
#01012:1316000013001300
#01018:1300160013001313
#01015:00000016000013000013001300000000
#0101b:0000001300130000
#01014:00000000000000000000000000000033
#0161b:1313001300000000
#01616:0013130000000000
#01612:0000130000000014
#01614:13000014
#01618:00000014
#01615:00000000000000130000000000000000
#0161a:0000000000000014
#0221a:00000014
#02218:00000000000000000000000000140000
#02216:0000000000000014
#02214:00000000000000000000000000000014
#02212:0013130000000000
#02217:1300001313000000
#02215:0000000000160000
#02312:14000000000013001300001300001300
#0231b:00000000130000130000130013000013
#02315:00000000130000000013000013000000
#02318:00000000001300001300000000130000
#0261a:0000001300001400
#02618:00001300000000000000000000140000
#02616:0000000000000014
#02614:00000000000000000000000000000014
#0261b:0013
#02619:00130000
#02615:0000000000160000
#02617:13
#02817:0000001212121212
#0281b:1300001300130013
#02812:00131313
#02816:0013000000000000
#04816:2414141400000000
#04812:0013001300000000
#0481b:13130000
#0481a:00001313
#04813:0000000000130013
#04817:0000000012121212
#03215:00000013000013000000001300001616
#03212:00130013
#0321b:23001313
#03218:00001300000000130000130000000000
#0341b:13000000130000000000001300000000
#03412:2300130013000013
#03414:0013000000001300
#03418:00000013000000000000000000000000
#03419:00000000000013000000000000130000
#03417:00000000000000001300000000000013
#03415:00000000000000130000000000000000
#03416:0000000000130000
#03517:0000000000130013
#03512:13000013000000001300000000001300
#0351b:13131323
#03515:00130000000000130000000000000000
#03518:0000001300000000
#03516:00000023
#03616:0013130000131300
#03619:00000013000000000000001300000000
#03617:1300001313000000
#0361b:00130013
#03614:00000000000000130000000000000000
#03612:2313
#0361a:00000000000000000000000000000014
#0461a:1414
#04612:23141314
#0461b:00130013
#04616:0013000000140014
#04617:0000001300000000
#0471a:1414
#04712:1300140013001416
#0471b:00130013
#04718:0014000000160000
#04714:0000001400000000
#01718:00001300001300000000000013000000
#0171b:00000013000000000000000000001300
#01715:26000000130000000000130000130000
#01712:00000000000013001300001300000000
#01818:00001300001300000000000013000000
#0181b:13000013000000000000000000001300
#01815:00000000130000000000130000130000
#01812:00000000000013001300001300001300
#0381b:0013000000000000
#03817:00000000130000000000001300000013
#03819:00000000000000130000000000000000
#03812:00000000000000000013000000130000
#03818:23
#04012:0013000000000000
#04016:00000000130000000000001300000013
#04014:00000000000000130000000000000000
#0401b:00000000000000000013000000130000
#04015:23
#0411b:13131300
#04115:00001300001300130000000000001300
#04118:00130013000013000000000000000013
#04112:0000130013131300
#04116:0000000000130000
#04317:00000013
#04319:0000001300130000
#0431b:00130000000000001300000000000000
#04314:0013000000000000
#04318:13000013000000000000000000001300
#04315:00000000130000130015000000000013
#04312:13000000001300000000001500000000
#04212:00000000000013000013000000000000
#04215:00000000000000001300001300001300
#0421b:23000000130000000000000013000013
#04218:00000000000000130000130000130000
#04216:0013000000000000
#04210:41
#02552:0033
#0275b:00630063
#02756:0000006300630000
#02752:1400006300000063
#02757:00006363
#03157:00000013
#03152:00000013
#02952:16
#02958:16
#01452:5300000000000012
#01455:0023000000000000
#0145b:63
#01458:0023000000000000
#01456:0000000000000013
#03956:00000033
#03952:5333
#03955:00230000000000000000000000000000
#0395b:00630000
#03958:00000000002300000000000000000000
#03954:0000000000330000
#04458:0053
#04452:00530033
#04456:0000000000230000
#0445b:0000000000230000
#04457:00000033
#0195b:0063
#01957:00000000000000000000002300000000
#01952:53
#01956:00000023000000000000000000000000
#00252:00000033
#0025b:00000043
#00452:00000016
#00458:00000016
#0065b:00000043
#00652:00000033
#01058:00000043
#01052:00000033
#01156:00000033
#0115b:00000033
#01556:0053000000000000
#01552:0000230000000033
#0155b:0000004300002300
#01557:0000000000630000
#0165b:0000004300000000
#01656:0053000000000000
#01652:0000230000000044
#01654:00000034
#01658:00000044
#0165a:0000000000000034
#02058:00000043
#02055:00000033
#02352:14
#02455:0033
#02458:0043
#0265b:0043
#0285b:53
#02856:0023000000000000
#01355:0063000000000000
#01352:00230000
#0135b:00230000
#01358:0053000000000000
#0335b:4343
#03352:00335300
#03356:0000000000230000
#0305b:4343
#03052:00330000
#03252:00330033
#0325b:4343
#0345b:63430000
#03452:33633300
#03457:0063
#03556:00000013
#0355b:00000013
#03657:6363
#03652:3333
#0365b:00430043
#03656:00530000
#03752:3434
#0375a:00440000
#03755:0000000000630000
#03758:0000000000530000
#0465a:1414
#04652:00140014
#0475a:1414
#04752:00140014
#01752:0000003300000000
#0175b:0000000000000043
#01852:0000003300000000
#0185b:0000000000000043
#02156:0043
#02257:0033
#03857:00630000
#04056:00530000
#0415b:63005343
#04158:00230000000000000000000000000000
#04152:00530000
#04155:00000000002300000000000000000000
#04156:0000000000230000
#04357:00000043
#04359:0000000000430000
#0435b:00230000000000004300000000000000
#04358:53
#04355:00630000
#04352:00000000002300000000000000000000
#0425b:00630000
#04555:63
#04552:00230000000000000000000016000000
#04558:00530016
#0455b:00000000002300000000000000000000
#00852:00000033
#0085b:00000043
#000320:13
#001320:23
#0033b0:13330000
#003360:0033002300000000
#003360:00001323
#003320:0000000000330000
#003380:00000000000000000000000000001323
#004350:00001323000000000000000000000000
#004380:00000000000013230000000000000000
#004360:0000000000000013
#004390:00000000000000000000000000000033
#0053b0:23
#0053b0:0000132300000000
#005320:0013
#005370:0000000000230000
#0053b1:0000000000130000
#005361:00000023
#005320:00000013
#005370:0000000000000023
#006370:0000000000000013
#006340:00000000000000000000000000000033
#007320:23
#007320:0000132300000000
#0073b0:0013
#007360:0000000000230000
#007321:0000000000130000
#007371:00000023
#0073b0:00000013
#007360:0000000000000023
#0083b0:0000000000000013
#008390:00000000000000000000000000000033
#009360:23
#009320:00130000
#009360:0000002300000000
#0093b0:0013
#009370:0000000000230000
#009320:00000013
#009360:0000000000000023
#010320:0000000000000013
#010340:00000000000000000000000000000033
#011370:23
#0113b0:00130000
#011370:0000002300000000
#011320:0013
#011360:0000000000332300
#0113b1:0000000000132300
#013351:0013002300000000
#013321:00530000
#013380:0013002300000000
#0133b0:00530000
#014320:13230000
#014350:0053000000000000
#0143b1:13230000
#014381:0053000000000000
#015361:0013002300000000
#015321:00530000
#015371:0000000000130023
#0153b1:00000053
#016361:0013002300000000
#016321:00530000
#016321:0013
#016351:0000000000230000
#0163b0:0013
#016380:0000000000230000
#0173b0:0000001300000000
#017360:0023
#017320:0000000000000013
#018370:23
#0183b0:0000001300000000
#018360:0023
#019320:1300002300000000
#019360:00000053000000000000000000000000
#0193b0:0000000013000023
#019370:00000000000000000000005300000000
#020350:00001323
#020381:00001323
#020321:0000000000000013
#021321:23
#021371:0013230000000000
#021321:0000001323000000
#0213b1:0000000000000013
#0223b1:23
#022361:0013230000000000
#0223b1:0000001323000000
#024381:0000133323000000
#024350:0000001323000000
#0253b0:13532300
#025380:0053000000000000
#025360:0000005300000000
#026320:13532300
#026350:0053000000000000
#026370:0000005300000000
#0273b0:00132300
#027360:0000003300000000
#027321:0000001300230000
#027371:0033
#027360:0000000000130023
#0273b0:00000033
#027371:00000013
#027321:0000000000000033
#028371:23
#0283b0:13230000
#028360:0053000000000000
#029380:0000162600000000
#029321:0000001626000000
#030321:1323000000000000
#0303b1:0000132300000000
#030321:0000000013230000
#031351:00001323000000000000000000000000
#031381:00000000001323000000000000000000
#0313b1:0000000000130000
#031391:00000000000000000000003300000000
#031371:00000023
#032321:1323000000000000
#0323b1:0000132300000000
#032321:0000000013230000
#033321:00001323
#033361:0000000000530000
#0343b1:13
#034371:0023000000000000
#034321:00130000
#034361:0000002300000000
#034371:0013
#0343b1:0000000000230000
#035381:00001323000000000000000000000000
#035351:00000000001323000000000000000000
#035321:0000000000130000
#035341:00000000000000000000003300000000
#035361:00000023
#036371:13
#0363b1:0023000000000000
#036361:00130000
#036321:0000002300000000
#036371:0013
#0363b1:0000000000230000
#036361:00000000000000000000000000001424
#037361:00001424000000000000000000000000
#037361:00000000000014240000000000000000
#037351:0000000000130000
#037321:00000023
#037380:0000000000130000
#0373b0:00000023
#038320:13230000
#038370:0033000000000000
#038371:00130000
#0383b1:0000002300000000
#038360:0000001300000000
#038340:00000000000000330000000000000000
#038320:0023
#038371:00000000000000001323000000000000
#0383b1:00000000000000000000132300000000
#038371:00000000000000000000000013230000
#0383b1:00000000000000000000000000001323
#039321:1323000000000000
#039351:00530000000000000000000000000000
#0393b1:0000132300000000
#039381:00000000005300000000000000000000
#0403b1:13230000
#040361:0033000000000000
#040360:00130000
#040320:0000002300000000
#040371:0000001300000000
#040391:00000000000000330000000000000000
#0403b1:0023
#040360:00000000000000001323000000000000
#040320:00000000000000000000132300000000
#040360:00000000000000000000000013230000
#040320:00000000000000000000000000001323
#0413b0:1323000000000000
#041380:00530000000000000000000000000000
#041320:0000132300000000
#041350:00000000005300000000000000000000
#0413b0:00001323
#041360:0000000000530000
#042360:13230000
#042320:0033000000000000
#0423b1:00130000
#042371:0000002300000000
#0423b1:00000000000000001323000000000000
#042321:00000000000000000000000013230000
#043381:13
#0433b1:00530000000000000000000000000000
#043371:0023000000000000
#043351:00130000
#043321:00000000005300000000000000000000
#043361:0000002300000000
#044371:13230000
#0443b1:0033000000000000
#044320:00130000
#044360:0000002300000000
#044380:0013
#0443b0:0000000000330000
#044370:00000023
#044361:0000000000130000
#044321:00000023
#045351:13
#045321:00530000000000000000000000000000
#045361:0023000000000000
#045381:00130000
#0453b1:00000000005300000000000000000000
#045371:0000002300000000
