This file was generated by Ched 2.7.0.0.
#TITLE ""
#ARTIST ""
#DESIGNER ""
#DIFFICULTY 0
#PLAYLEVEL
#SONGID ""
#WAVE ""
#WAVEOFFSET 0
#JACKET ""
#REQUEST "ticks_per_beat 480"
#00002: 4
#BPM01: 120
#00008: 01
#TIL00: ""
#HISPEED 00
#MEASUREHS 00
#00112:00140014
#00118:2414
#00110:41
#0021a:14
#00214:00140000
#0051a:24140000
#00514:00001414
#0061a:1414
#00614:00140000
#00712:14140000
#00718:00001414
#00710:41
#00812:1414
#00818:00140000
#00918:2400140000140000
#00914:00001414
#0101a:1414
#01012:00140000
#01114:1400140000140000
#01118:00001414
#01212:1414
#0121a:00140000
#01214:0000000000000014
#01218:00000014
#02012:14
#02018:00140000
#02014:0014
#0201a:00000014
#03012:00160000
#03018:26001414
#03014:0000000000140000
#0301f:21
#03112:16
#03118:0000160000140000
#03114:00001414
#03110:41
#03218:16001414
#03212:00160000
#03214:0000000000140000
#03318:00160000
#03312:16
#03319:0014
#03313:0014
#0381a:00140000
#03814:00001414
#03818:0000000000140000
#03812:24
#0391a:14
#03918:00140000
#03914:0014
#03912:00140000
#0031a:00140014
#00314:1414
#00412:14
#00418:00140000
#0421a:24140000
#04214:00001414
#04218:0000000000140000
#04212:24140000
#04210:41
#0431a:14140000
#04312:00141400
#04412:14140000
#04418:00001414
#04414:0000000000140000
#0441a:14140000
#04512:1400140000160000
#0451a:00140000
#04518:00001616
#04918:14
#04914:00140000
#04913:0000000014141400
#04919:0000000014141400
#02818:00000014
#02814:0014
#01314:00140014
#01318:2414
#01310:41
#01518:00140014
#01514:1414
#01614:14
#0161a:00140000
#01418:14
#01412:00140000
#02914:1400001400000000
#02918:00141400
#02913:00000014
#02919:00000014
#0171a:00140000
#01718:00000014
#01714:0014
#01712:24
#0181a:00140000
#01818:00000014
#01812:14
#01814:0014
#03412:2414
#03414:00140014
#03418:2400000000140000
#0341a:00140000
#0341a:00140000
#0361a:00141400
#03614:0000140000140000
#03618:14000014
#03612:14
#02618:0014
#02614:00000000000000000000000000343434
#04614:14
#04618:00140000
#0481a:00140000
#04814:14
#04712:00140000
#04718:14
#02114:00000014
#0211f:11
#02719:0000153535003535
#02716:0000000000150000
#02319:0000153535353500
#02316:0000000000000015
#02514:0014
#0351a:1414
#03518:00140014
#03514:1400000000140000
#03512:00140000
#03718:00160000
#03712:16
#03719:0014
#03713:0014
#04012:00140000
#04018:00001414
#04014:0000000000140000
#0401a:14
#04112:14
#04114:00140000
#04118:0014
#0411a:00140000
#00018:00001414
#00014:0000000000140014
#02419:3535353500000000
#02214:00000000000000000000000000343434
#01910:41
#02759:00550000
#02756:0000000000250000
#02359:00650000
#02356:0000000000000025
#0065a:0014
#0105a:0014
#03954:0014
#04352:0014
#03154:00000014
#03558:00000014
#000320:14240000
#0023a0:0000000014342400
#004320:0000000014342400
#0143a0:0014
#014380:00000024
#016320:0014
#016340:00000024
#019330:1424
#019391:1424
#021341:14
#021331:00340000
#021321:0024
#022381:14
#022391:00340000
#0223a1:0024
#022341:00000000000000000000000014343434
#023321:24
#023391:0000153535353500
#023361:0000000000000035
#024391:3535353525000000
#024321:00000014
#025351:34
#025321:00240000
#0253a1:00000014
#026371:34
#0263a1:00240000
#026341:00000000000000000000000014343434
#027321:24
#027391:0000153535003535
#027361:0000000000350000
#028391:25
#046341:00001424
#0473a1:00001424
#048321:00001424
