This file was generated by Ched 2.6.2.0.
#TITLE ""
#ARTIST ""
#DESIGNER ""
#DIFFICULTY 0
#PLAYLEVEL
#SONGID ""
#WAVE ""
#WAVEOFFSET 0
#JACKET ""
#REQUEST "ticks_per_beat 480"
#00002: 4
#BPM01: 133
#00008: 01
#TIL00: ""
#HISPEED 00
#MEASUREHS 00
#00213:14
#00210:41
#00319:14
#00613:14
#00819:14
#01412:14
#01512:14
#01618:14
#03413:1414
#03519:1414
#03613:14
#03619:0014
#04612:14
#04618:0014
#04714:14
#0471a:0014
#05313:0014
#05310:41
#05419:14
#00413:14
#00519:14
#00713:14
#00919:14
#01013:14
#01010:41
#01219:14
#01113:14
#01319:14
#01718:14
#01814:14
#01810:41
#01914:14
#0201a:14
#0211a:14
#02214:14
#0221f:11
#02318:14
#02414:14
#02518:14
#03018:0016
#03012:26
#0301f:21
#03112:16
#03118:0016
#03110:41
#03212:1616
#03318:1616
#04219:1414
#04210:41
#04313:1414
#04419:14
#04413:0014
#03812:0016
#03818:26
#03918:16
#03912:0016
#04018:1616
#04112:1616
#04812:14
#04818:0014
#04914:14
#0491a:0014
#05513:14
#05519:0014
#05613:14
#000390:14
#001390:00000024
#026330:14
#027330:24
#028390:14
#029390:24
#037330:1424
#045390:1424
#050330:14
#051330:24
#052390:14
#053390:24
#057390:14
#059390:24
