This file was generated by Ched 2.6.2.0.
#TITLE ""
#ARTIST ""
#DESIGNER ""
#DIFFICULTY 0
#PLAYLEVEL
#SONGID ""
#WAVE ""
#WAVEOFFSET 0
#JACKET ""
#REQUEST "ticks_per_beat 480"
#00002: 4
#BPM01: 133
#00008: 01
#TIL00: ""
#HISPEED 00
#MEASUREHS 00
#00218:00130000000013001300000000130000
#00215:23001300000000130000000013001300
#00210:41
#0031b:0013000000000000
#00315:00000013000000000000000000000000
#00312:00000000001300000000000000000000
#00318:1300001300000000
#00316:00000013
#00515:13001300000000000000001300130013
#0051b:00000013000000001300000000000000
#00512:0000001313000000
#00518:00000000001300000000130013001300
#00712:0000000000131300
#00718:0000000000001313
#00715:0000000000000013000000000000000000000000000000000000000000000000
#00717:0013
#02112:00130000000013000013000000130000
#02115:00000000000000000000001300000013
#02118:00130000000000000000130000001300
#02117:0000001300000000
#0211b:00002323
#02317:000013000000000000130000
#02316:000000000013000000000013
#02312:00000013
#02314:00130000
#02319:001300
#0231b:1313
#02412:000013000000130000000013
#02418:000000130000000000001300
#02415:000000001300000000130000
#0241b:130000000013000013000000
#02515:130000001300000000000000000000000000000000130000
#0251b:130000000013000000000000
#02518:00001313
#02512:00130000
#0261b:131300001300
#02618:000000130000001300000013
#02615:000013130013
#02612:130000000013000000130000
#02712:131300000000
#02719:00130000
#02714:001300
#0271b:000000000013000000130000
#02716:00000000000000001300000000130000
#0271a:0000000000000013
#02715:00000000000000000000000000000013
#02817:0000001300000013
#02819:1313
#02812:2313
#02816:0013000000130000
#0281b:00130013
#02814:00130013
#03112:13000000001300000000000000001300
#03115:0013000000001300
#0311b:00000013000000000000000000000000
#03118:0000001300000000
#03110:41
#03212:0013000000000013
#03218:00000013000000001300000000001300
#03215:13000000000000000000001300000000
#0321b:0000001300130000
#03315:13000000000000000013000000000000
#03312:0013001300000000
#03318:00000013001300000000000000001300
#0331b:13000013
#03612:1300000013000013
#03618:00001300000000130000000000001300
#03615:00000013000013000000130000000000
#0361b:13000000000000000000001300000000
#04918:00130000
#0491b:00000000000000131300000000001300
#04912:00000000130000000000001300000000
#04915:00120000000000000000000000000000
#0491c:12
#04919:0012000000000000
#0511b:00130000
#05115:00000000001300000000000000130013
#05118:0000001300001313
#05112:1400000000130000
#0511a:00140000000000000000000000000000
#05116:0014000000000000
#05315:00130000000013001300000000130000
#05318:23001300000000130000000013001300
#05310:41
#00418:13000000000000130000000013000000
#00415:00130000000013000000000000130000
#0041b:0013000000000013
#00412:0013
#05518:13000000000000130000000013000000
#05515:00130000000013000000000000130000
#0551b:0013000000000013
#05512:0013
#05416:0013000000000000
#0541b:00000013000000000000000013000000
#05417:00000000001300000000000000000000
#05412:1300001300000000
#02218:000013001313
#02215:000000000013001300000013
#02212:23131313
#0221b:23131313
#0221f:11
#04615:00000000001200000013000000000000
#04612:24000000000000130000000000000000
#04619:00000000000000000000000000120000
#0461b:00000000000012000000130000000013
#04618:00121300
#04616:00000012
#04613:0000000000000012
#0461a:24
#04718:00130000000000130000130000002300
#04715:13131323
#04712:0013001300130023
#0471b:00000000001300001300000023000000
#04818:00131312
#0481b:0000001300130000
#04812:00000000001300001300000000000012
#04815:00000000000000130000130000120000
#0481a:0000000000000012
#05018:00000000130000000000000000000013
#0501b:00000000000013000000000000130000
#05012:00000000001300000014000000001300
#05015:00000000000000130000000013000000
#0501a:0014
#05016:0000000000140000
#05013:24
#05019:24
#0521b:13
#0061b:0000001300130000
#00617:0000000013000013
#00616:00000000000000000000001300000000
#00612:23000000000000130000000000000013
#00615:00000013000000000000000000000000
#0081b:13000000000013000000000000000013
#00818:00000013000000000000001300000000
#00816:0000001300000000
#00815:0000000000000013
#00812:0000000000131300
#01015:13
#01012:00000013000000000000001300001300
#01016:0000001313000000
#01017:0000000000130000
#0101b:00000000000000130000000000000000
#01018:00000000000000000000000000000013
#01010:41
#03418:00000000001300000000000013000000
#0341b:0000000000130000
#03412:00000013000013000000000013000000
#03415:2300000000000013
#03515:00000000001300000000000013000000
#03512:0000000000130000
#0351b:00000013000013000000000013000000
#03518:2300000000000013
#03015:00000013000000000000000000000000
#03018:00000013000000000000000000000000
#03012:23
#0301b:0000002300000000
#0301f:21
#0391b:13000013000000000000000013000000
#03916:0013000000000000
#03917:00000000001300000000000000000000
#03912:0000001300000000
#03915:0000000000000013
#0401b:00000013000000001300000000001300
#04015:00001313000000000000000000001300
#04018:00000000000013000000131300000000
#04012:13000000000000000000001300000000
#04118:13000000000000000013000000000000
#04115:00000013001300000000000000001300
#04112:13000013
#0411b:0013001300000000
#04318:0000001300001300
#04312:00000013000013000000000013000000
#04315:2300000000000013
#0431b:0000000000130000
#0441b:13
#04415:00000000000013000000001300000013
#04418:00000013000000130000000000001300
#04412:1313
#04512:00000013000000002300000000000000
#0451b:23000000000000000000001300000000
#04516:00000000000000000000001300001400
#04517:00000013000000000000000000000000
#04515:0000001300000000
#04518:00000000000000130000000000000000
#00918:0000000000000013000000000000000000000000000000000000000000000000
#00912:00000013
#00917:00000013
#00916:0013
#0111b:0000000000000013000000000000000000000000130000001300000000000000
#01115:0000000000001313
#01112:0013
#0121b:0013001300000013
#01215:00000013000000130000000000001300
#01218:13000000000000001300001300000000
#01212:00000000000000000000001300000000
#01312:00000013000000000000000024000000
#0131b:0013
#0131a:00000024
#00018:1212000000001212
#00014:00120000000000000000000000000000
#00016:0000001212000000
#0001a:00000000000000120000000000000000
#00012:00000000000000000000000000120000
#00116:00001200120000000012000000000000
#0011c:00000012000000000000000000000000
#00118:0000000012120000
#00112:00000014
#0011a:00000014
#01512:0000130000130000
#01519:00000013
#01515:0013
#01517:0000000000130000
#01516:0000000000000013
#0151b:0000130000000013
#01514:00000013
#01412:0013
#0141b:0000000000130000
#01416:00000000000000000000001300000000
#01418:00000000000000130000000000000013
#01415:0000001300000013
#01612:0000001300000000
#01617:13
#0161b:0000000000131300
#01615:00000000000000000000001300000013
#01618:0000000000000013
#0171b:0000130000130000
#01714:00000013
#01717:0000000000000013
#01719:00000013
#01716:0000000000130000
#01712:0000130000000013
#01718:0013
#01812:0000000000130000
#01817:00000000000000000000001300000000
#01815:00000000000000130000000000000013
#01818:0033001300000013
#0181b:0013
#01813:0033000000000000
#01810:41
#0191b:0000130000130013
#01917:00000013
#01912:00130013
#01916:0000000000130013
#01918:0013
#02018:00000000000013000000001300130000
#02015:00003300000000130000130000001300
#0201b:0000000013000013
#02012:00000000001300000000000000000000
#0201a:0033000000000000
#05615:00001300000013000000000000130000
#05618:00130000001300000000000000001300
#05612:230000000000000000000000230000000000000000000000000033003300330033003300000000000000000000130000
#0561b:00000013000000130000000023000000
#03818:00000013000000000000000000000000
#03815:00000013000000000000000000000000
#03812:0000002300000000
#0381b:23
#0291b:00130000001300000000000000000000
#02915:000000130000000000130000003300000000000000000000
#02918:00000013000000130000000000000000
#02912:23130000
#02914:000000000000003300000000
#02913:000000000000000000000000000000333333000000000000
#02917:000000000000000000000000000000000000003333333333
#03712:000000130000000000000000000000130000000000000000000000000000000000000000000033003300330033003300
#03718:0013001300000000
#03715:00000013000000130000000000000000
#0371b:230000000000230000000000003333333333000000000000
#04215:00000000001300000000000013000000
#04212:0000000000130000
#0421b:00000013000013000000000013000000
#04218:2300000000000013
#04210:41
#05712:2c
#00255:0053000000000053
#00258:0063
#0045b:0063000000000063
#00452:0053
#05358:0053000000000053
#05355:0063
#0555b:0053000000000000
#05552:0063
#00358:0000006300000000
#0245b:53
#02452:0063
#04952:00530000
#0495b:0053
#05158:0000005300000000
#05156:0014000000000000
#05452:0000005300000000
#02859:1313
#02854:00130013
#03158:0000006300000000
#03452:0000006300000000
#0355b:0000005300000000
#03952:0000005300000000
#04458:00000023000000000000000000000000
#0445b:53
#04452:0063
#04455:00000000000000000000002300000000
#00652:00000000000000000000000000000053
#00755:0000000000000023000000000000000000000000000000000000000000000000
#0085b:00000000000000000000000000000063
#00958:0000000000000023000000000000000000000000000000000000000000000000
#01058:00000000000000000000000000000053
#0115b:0000000000000023000000000000000000000000000000000000000000000000
#01255:0000000000000063
#01352:00000023000000000000000000000000
#05053:34
#05059:44
#05056:0000000000140000
#03052:5300003300000000
#03055:00000023000000000000000000000000
#0305b:0000004300000000
#01458:00000000000000000000000000000063
#02055:0000000000000063
#0205b:0000000000000063
#02158:00230000000000000000000000000000
#02152:00230000000000000000000000000000
#0255b:53
#02552:00630000
#04652:34
#0465a:44
#03858:00000023000000000000000000000000
#03852:0000003300000000
#0385b:6300004300000000
#0155b:00230000
#01655:00000000000000000000000000000053
#01752:00230000
#01855:00000000000000000000000000000053
#01952:00230000
#02652:33
#0265b:43
#0425b:0000005300000000
#04352:0000006300000000
#0415b:0000005300000000
#04158:00000000000000000023000000000000
#03355:00000000000000000023000000000000
#03352:0000005300000000
#0225b:43
#02252:33
#0235b:0013
#02756:0013
#0475b:00000013
#04752:0000000000000013
#05752:5c
#0525b:13
#002350:0013000000000000
#002320:0000002300000000
#002380:0013
#0023b0:00000023
#002350:0000000000000013
#003320:23
#003380:0000001300000000
#0033b0:0000000000532300
#0043b0:0013000000000000
#004380:0000002300000000
#004320:0013
#004350:00000023
#0043b0:0000000000000013
#005380:23
#006380:13
#0063b0:00000023000000000000000000000000
#006320:00000000000000000000000000000013
#007350:0000000000000053000000000000000000000000000000000000000000000000
#007320:0023
#008350:13
#008320:00000023000000000000000000000000
#0083b0:00000000000000000000000000000013
#009380:0000000000000053000000000000000000000000000000000000000000000000
#0093b0:0023
#0103b0:13
#010380:00000023000000000000000000000000
#010380:00000000000000000000000000000013
#0113b0:0000000000000053000000000000000000000000000000000000000000000000
#011380:0023
#012320:13
#012350:0023000000000000
#012350:0000000000000013
#013320:00000053000000000000000000000000
#013350:0023
#014370:13
#0143b0:00000023000000000000000000000000
#014321:13
#014361:00000023000000000000000000000000
#014381:00000000000000000000000000000013
#0153b1:00530000
#015381:0023
#016321:13
#016361:00000023000000000000000000000000
#0163b0:00000013000000000000000000000000
#016370:0000002300000000
#016350:00000000000000000000000000000013
#017320:00530000
#017350:0023
#0183b0:13
#018380:0033000000000000
#018370:00000023000000000000000000000000
#018361:13
#018331:0033000000000000
#018321:00000023000000000000000000000000
#018351:00000000000000000000000000000013
#019321:00530000
#019351:0023
#020321:13
#020351:0033000000000000
#020361:00000023000000000000000000000000
#020370:13
#0203a0:0033000000000000
#0203b0:00000023000000000000000000000000
#020350:0000000000000013
#021320:00530000000000000000000000000000
#021350:00230000
#0203b1:0000000000000013
#021381:00530000000000000000000000000000
#0213b1:00230000
#023321:132300000000
#0243b1:13
#024371:002300000000
#024321:0013
#024361:000023
#0253b1:13
#025381:0053230000000000
#025320:00130000
#025350:0000005323000000
#0273b0:132300000000
#029360:0013
#029350:000000000000000000000000003300000000000000000000
#029340:000000000000003300000000
#029330:000000000000000000000000000000333333000000000000
#029320:00000023
#029371:000000000000000000000000000000000000133333333333
#0303b1:23
#030320:1300002300000000
#030350:00000053000000000000000000000000
#0303b0:0000000000132300
#030351:0000000000001323
#030380:0000000000000013
#031380:23
#031380:0000001300000000
#0313b0:00000023
#0313b0:0000000000000013
#0323b0:23
#032320:0000001323000000
#033320:0000001300002300
#033350:00000000000000000053000000000000
#0343b0:13
#034380:00000023000000000000000000000000
#034320:0000001300000000
#034350:0000000000230000
#035320:13
#035350:00000023000000000000000000000000
#0353b0:0000001300000000
#035380:0000000000230000
#037370:0013
#0373b0:000000000000000000000000003333333333230000000000
#037361:00000013
#037321:000000000000000000000000000000000000003333333333
#038321:23
#0383b0:1300002300000000
#038380:00000053000000000000000000000000
#038320:0000000000132300
#038381:0000000000001323
#038350:0000000000000013
#039350:23
#039320:0000001300000000
#039350:00000023
#0393b0:0000000000000013
#040380:23
#040320:0000001300000000
#040350:0023
#0413b0:0000001300002300
#041380:00000000000000000053000000000000
#042320:13
#042350:00000023000000000000000000000000
#0423b0:0000001300000000
#042380:0000000000230000
#0433b0:13
#043380:00000023000000000000000000000000
#043320:0000001300000000
#043350:0000000000230000
#0443b0:1300002300000000
#044380:00000053000000000000000000000000
#044320:0000000013000023
#044350:00000000000000000000005300000000
#049320:00130000
#049350:0023
#0493b1:0013
#049381:00000000000000000000002300000000
#049321:0000000000001323
#051381:0000001300000000
#0513b1:0000000000230000
#053381:0013000000000000
#0533b1:0000002300000000
#053351:0013
#053321:00000023
#053381:0000000000000013
#0543b1:23
#054321:0000001300000000
#054361:0000000000532300
#0553b1:0013000000000000
#055381:0000002300000000
#055321:0013
#055351:00000023
#056321:000000000000000000000000133333333333000000000000
#056351:00000023
#057321:1c
#059371:22
