This file was generated by Ched 2.6.2.0.
#TITLE ""
#ARTIST ""
#DESIGNER ""
#DIFFICULTY 0
#PLAYLEVEL
#SONGID ""
#WAVE ""
#WAVEOFFSET 0
#JACKET ""
#REQUEST "ticks_per_beat 480"
#00002: 4
#BPM01: 133
#00008: 01
#TIL00: ""
#HISPEED 00
#MEASUREHS 00
#00218:13000000000000130000000013000000
#00215:00130000000013000000000000130000
#0021b:0013000000000013
#00212:0013
#00210:41
#00712:0000000000130000
#00718:00000013
#00715:0000000000000013
#02318:000000001400000000000014
#02312:00140014
#02313:000000000014000000000000
#02319:0014
#0231a:14
#0241a:000000140014000000000000
#02414:001400
#02418:000000000000000000140014
#02412:000000000014
#0251a:001400000000
#02518:000000000014000000130000
#02515:0000000000000013
#02512:1414
#02514:00140000
#02612:00141414
#02616:000000001400001400001400
#0261a:000014000014000014000014
#0271b:0000000000001313
#02715:00000000000000000000000000130013
#0271a:00140000
#02714:001400
#02719:000000000014000000000000
#02713:0014
#02712:14
#02815:0000001313000000
#02818:00000000000000130000000000130013
#02812:0000000000001313
#0281b:13
#03018:00000013000000000000000000000000
#03015:0000002300130000
#03012:00000013000000000000000000000000
#0301b:1300002300130000
#0301a:00000013
#03019:0000000000000013
#03014:00000013
#03013:0000000000000013
#0301f:21
#03112:1300000000000013
#03115:00001300001300000000000000000000
#03118:13000013000013000000000000000000
#03110:41
#03212:0000000000000013
#03215:00001300000000001300001300000000
#03218:13000013000000000000130000000000
#0321b:0000001300000000
#03312:0013000000000000
#03318:00000013000000000000000000000000
#03315:00000000001300000000000000001300
#0331b:13
#03615:00001300000000000000001300000000
#03612:0000001313000013
#03618:13000013000000130000000000001300
#0361b:0000000000130000
#0221a:00141414
#02216:000000001400001400001400
#02212:000000000014000014000014
#0221f:11
#0491b:00130000
#04912:1313
#04918:00000013
#04915:0000000000000013
#0061b:13000000000000000000001300000000
#00618:00000000000013001300000000000013
#00615:00000013000000130000130000000000
#00612:2300000000000013
#00815:00000000000013000000000000000013
#00818:00000000000000000000001300000000
#00812:0000000000131300
#0081b:0000000000000013
#01012:13000000000000000000001300000000
#01018:00000013000000130000130000000000
#01015:00000000000013001300000000000013
#0101b:0000000000000013
#01010:41
#0341b:0000001300000000
#03412:00000013000000000000000000000000
#03418:23000013000000000000000000001300
#03415:0000001300000000
#03515:23000013000000000000000000001300
#03512:0000001300000000
#0351b:00000013000000000000000000000000
#03518:0000001300000000
#04315:0000001300000013
#0431b:0000001300000000
#04312:00000013000000000000000000000000
#04318:23000013000000000000000000000000
#0441b:1300000000000013
#04415:00000000000013000000000000000013
#04412:0013
#04418:00000000000000130000000000000000
#04512:00000013000013001300000000000000
#0451b:13000000000000000000001300000000
#04515:00000000000000000000001300000000
#04514:0000000000000014
#04518:00000013000000130000000000000000
#0111b:0000000000130000
#01115:00000013
#01118:0000000000000013
#01218:0000001313000013
#01212:00000000000000130000000000000000
#01215:00003300000000000000001300000000
#0171b:0000000000130000
#01718:00000013
#01715:0000000000000013
#02912:13
#02918:0000001313000013
#02915:00000000000000130000000000000013
#00312:13
#0031b:0013000000000000
#00315:00000013001300000000000000000000
#00415:13000000000000130000000013000000
#00418:00130000000013000000000000130000
#00412:0013000000000013
#0041b:0013
#0051b:13
#00512:0013000000000000
#00518:00000013001300000000000000000000
#01512:0000000000130000
#01515:00000013
#01518:0000000000000013
#0141b:13000000000000000000001300000013
#01418:0000001313000000
#01415:00000013000000000000130000001300
#01412:00000000000000130000000000000000
#0161b:13
#01615:0000001300000013
#01618:00000000000000000000130013000013
#01612:00000000000000000000001300000000
#01812:13000000000000000000001300000013
#01815:00000013000000001300000000000000
#01818:0013001300130013
#01810:41
#01912:0000000000130000
#01915:00000013
#01918:0000000000000013
#02015:00000000001300130000001300000000
#02018:0033001313000013
#0201b:13
#02115:0000001300000000
#02119:0013
#02113:00000000000000000000001300000000
#02114:0000000000000013
#02112:0013
#0211a:00000000000000000000001300000000
#0211b:0000000000000013
#03715:00000013000000000000000000001300
#0371b:00000013000000000000000000000000
#03718:00000000000000000000000000000013
#03815:00000013000000000000000000000000
#03818:0000002300130000
#0381b:00000013000000000000000000000000
#03812:1300002300130000
#03813:00000013
#03814:0000000000000013
#03819:00000013
#0381a:0000000000000013
#0391b:1300000000000013
#03918:00001300001300000000000000000000
#03915:13000013000013000000000000000000
#0401b:0000000000000013
#04018:00001300000000001300001300000000
#04015:13000013000000000000130000000000
#04012:0000001300000000
#0411b:0013000000000000
#04115:00000013000000000000000000000000
#04112:13
#04118:00000000001300000000000000001300
#04212:0000001300000000
#0421b:00000013000000000000000000000000
#04215:23000013000000000000000000001300
#04218:0000001300000000
#04210:41
#0461b:0000131313130000
#04615:00000000001300130013000000000000
#04612:0000000000001313
#04618:24000000000000000000000000130013
#04712:13001300000000130000000000000000
#04718:00130000000013001300000000000000
#0471b:00130000
#04715:00000000001300000000130000000000
#04719:00000024
#04713:0000000000000024
#0481b:0000131313000000
#04815:00000000001300130000000000000000
#04812:0000000000001313
#04818:00000000000000000000000000130013
#05012:00131300
#05018:00000000001300130013000000001300
#05015:00000000000013000000130000130013
#0501b:00000013
#05019:24
#0511b:13
#05115:00130000000000000000000000130013
#05118:00001300001300000000000013001300
#05112:00130000
#05318:13000013
#05312:00130000000000001300000000130000
#05315:0000001300000000
#0531b:00001300000000130000000000001300
#05310:41
#05412:13000000001300000000000000000000
#0541b:0013000000000000
#05415:00000013000000000000000000000000
#05515:13000013
#0551b:00130000000000001300000000130000
#05518:0000001300000000
#05512:00001300000000130000000000001300
#0561b:13000000001300000000000000000000
#05612:0013000000000000
#05618:00000013000000000000000000000000
#05218:13
#00112:00000024
#01314:00000023
#01319:00000023
#0571b:23
#05712:23
#0495b:00630000
#04952:6363
#03158:0000006300000000
#0345b:0000006300000000
#03455:0000006300000000
#0445b:53
#04452:0063
#00658:00000000000000000000000000000063
#00855:00000000000000000000000000000053
#01055:00000000000000000000000000000053
#01258:0000000000000063
#0145b:00000000000000000000000000000063
#01658:00000000000000000000000000000063
#0165b:53
#02058:0000000000000063
#0205b:53
#01852:00000000000000000000000000000053
#0285b:53
#02952:53
#03552:0000005300000000
#03558:0000005300000000
#03652:0000000000000053
#03658:0000000000000053
#03755:00000023000000000000000000000000
#0375b:00000023000000000000000000000000
#03955:0000005300000000
#04252:0000005300000000
#04258:0000005300000000
#0435b:0000006300000000
#04355:0000006300000000
#04658:14
#0485b:0053
#05059:14
#0235a:64
#02359:0014
#02752:54
#02753:0014
#0305b:0000001300000000
#03055:0000001300000000
#03858:0000001300000000
#03852:0000001300000000
#04759:00000014
#04753:0000000000000014
#0575b:53
#05752:53
#05258:13
#000380:13332300000000000000000000000000
#000350:00000000000013332300000000000000
#0003b0:00000000000000000000000013332300
#001320:00001333230000000000000000000000
#001380:00000000000000001333230000000000
#0033b0:0000001300002300
#005320:0000001300002300
#006380:00000000000000000000000000000013
#0073b0:00230000
#0083b0:13
#008380:00000023000000000000000000000000
#008350:00000000000000000000000000000013
#009320:00230000
#010350:00000000000000000000000000000013
#011320:00230000
#012320:13
#012350:00003323000000000000000000000000
#012380:0000000000000013
#0133b0:00230000
#0143b0:00000000000000000000000000000013
#015380:00230000
#0163b0:13
#016380:00000023000000000000000000000000
#016380:00000000000000000000000000000013
#0173b0:00230000
#018320:00000000000000000000000000000013
#019350:00230000
#0203b0:13
#020380:00003323000000000000000000000000
#020380:0000000000000013
#0213b0:00230000
#0233a0:14
#023370:002400000000
#024340:142400000000
#024340:000000142400
#027320:14
#027350:002400000000
#0283b0:13
#028380:00230000
#029320:13
#029350:00230000
#031380:0000001300000000
#0313b0:00000023
#0333b0:0000001300002300
#0343b0:0000001300000000
#034380:00000023
#034351:0000001300000000
#034321:00000023
#035321:0000001300000000
#035351:00000023
#035380:0000001300000000
#0353b0:00000023
#036320:0000000000000013
#037350:00000053000000000000000000000000
#037320:0023
#036381:0000000000000013
#0373b1:00000053000000000000000000000000
#037381:0023
#039351:0000001300000000
#039321:00000023
#041321:0000001300002300
#042321:0000001300000000
#042351:00000023
#042380:0000001300000000
#0423b0:00000023
#0433b0:0000001300000000
#043380:00000023
#043351:0000001300000000
#043321:00000023
#0443b1:13
#044381:00230000
#044321:0013
#044351:00000023
#0483b1:0013
#048381:0000000000230000
#049321:13
#049351:0023000000000000
#0493b1:00130000
#049381:00000000000000230000000000000000
#049321:0013
#049351:00000000000000000000002300000000
#051351:0000001300230000
#054381:0000001300002300
#056351:0000001300002300
#057321:13
#059351:23
#0573b0:13
#059380:23
