This file was generated by Ched 2.6.2.0.
#TITLE ""
#ARTIST ""
#DESIGNER ""
#DIFFICULTY 0
#PLAYLEVEL
#SONGID ""
#WAVE ""
#WAVEOFFSET 0
#JACKET ""
#REQUEST "ticks_per_beat 480"
#00002: 4
#BPM01: 133
#00008: 01
#TIL00: ""
#HISPEED 00
#MEASUREHS 00
#00218:00130000000013001300000000130000
#00215:00001300000000130000000000001300
#00212:23131313
#0021b:0013000000130013
#00210:41
#0031b:00001300001313000000000000000000
#00317:00000000000000000013000000000000
#00316:0000001300000000
#00312:13000000000000000013000000000000
#00315:00000013000000000000000000000000
#00518:13000013001300000000000000130000
#0051a:00000000000000001300001300000000
#00517:0000000000130000
#00515:0013001300001300
#00513:0000000013000013
#00516:00000000000000000000000000000013
#02114:0000001300000000
#02119:0000001300000000
#02112:00001323
#0211b:00000000000000002300001300130000
#02118:00000000000000000013000000000013
#02115:0000000000130013
#02317:000000000000000000130013
#02312:130000130013000000130000
#02316:001313130000
#02318:13
#02417:131300000000
#02412:000000140000230000000014
#02416:000014131314
#0241a:000000000014000000140000
#0241b:23
#02518:0000000000001313
#02515:00000000000000000000000000130013
#02516:130000000013130000000000
#02512:00130000
#02517:000013130000000000000000
#0251b:1313
#0261b:1313
#02612:13130013
#02615:001313131313
#02618:000000130013001300130013
#02715:1300000000001313
#02718:00000000000000000000000000130013
#0271b:130000130013000000000000
#02717:001313130000
#03012:00000013000000001300000000000000
#03016:13000013000023000000000000000000
#03017:0013
#0301b:23
#0301f:21
#0311b:0013001300000013
#03115:000000000000000000000000000000000000000000003300000000000000330000000000000000000000000000130000
#03116:000000000000000000140000000000140000000000000000330033133300000000000000000000000000000000000000
#03112:0000001300000013
#03118:00000013
#03114:000000000000000000003300000000003333000000000000
#03110:41
#03212:0000001300000013
#03215:0013000013000000
#03217:0000000000000013
#03218:13000000000000130000130000000000
#0321b:0000001300000000
#03316:13000014001400000000000000000000
#03315:0000000000001313
#0331b:1300001300000013
#03312:0013001300000000
#03317:000000000000000000000000000000000000000000000000330033133300000000000000000000000000000000000000
#03319:000000000000000000003300000000003333000000000000
#03318:000000000000000000000033000000330000000000000000
#03612:1300000000000013
#0361b:1300000000000013
#03615:00001300000013001300001300000000
#03618:00000013000000130000130000000000
#04917:00130000
#0491b:00000000000000131300000000000000
#04912:00000000130000000000001313000000
#04916:0000000000000014
#04915:00130000000013000000000000000000
#04918:1316000000130000
#02815:0013000000130013
#0281b:1300000013000013
#02812:23130013
#02818:0000001300000000
#04812:14000000130000000000160013000013
#04818:00000000000013000013000000130000
#04815:00000000001300001300000000001300
#0481b:00000000130000130000000013000000
#0481a:14
#0061a:00000000000000000000121200000000
#00618:00000000000000000000000000001212
#00619:00000012000000000000000000000000
#0061c:12
#00612:23131313
#0341b:00130000001300000000000000000000
#03412:2300131400000013
#03418:23000013000000000000000000001300
#03416:00000000000000000014000000000000
#0341a:00000014
#03415:0013000000000000
#04418:13000000000000130000000000001300
#04415:00000000000013001300000000000013
#0441b:00000013000000001300000000000000
#04412:13000000000000000000001300000000
#01214:0012000000000000
#01212:1200000000000012
#01215:00000000000000000000001200000000
#01216:00000012000000000000000000000000
#0121b:1313
#01218:00130013
#03718:00001300000000000000000000150000
#0371a:0000001300000000
#03713:00000015000000000000130000000000
#03715:00000000000000150000000000001300
#03712:00150000000000002300000000000000
#03714:00000000001500000000000023000000
#03716:00000000000000000015000000000000
#03717:23000000000000000000001500000000
#03719:00000000230000000000000000000015
#00012:12
#00018:00120000000000000000000000000000
#0001a:0000001200000000
#00016:00000000000000120000000000000000
#00014:00000012
#00019:00000000000000000000000000120000
#0011a:0012000000000000
#00115:00000012000000000000120000000000
#00117:0012
#00119:00000000000000000012000015000000
#00112:00000015
#05217:12
#01517:00000000001300000000130000000000
#0151b:0013000000000000
#01516:0013000013000000
#01512:0000131300000013
#01416:00000000000000000000131300000000
#01417:13000013000000000000000000001313
#01412:0000001300000000
#01415:0013
#01418:00000000000000130000000000000000
#0141b:13
#02018:0000000000130013
#02015:00000000000014000000001300130000
#0201b:00001313000000000000000000000000
#02017:00000000000000140000000000000000
#02012:00001313000000001400000000000000
#0201a:00000000001400000000000000000000
#02014:13
#02019:13
#02916:000000000000000000000000001300000000000000000000
#02914:0000000000130000
#02912:130000000000000000000000000000130000000000000000000000000000000000001300000000000000000000130000
#02917:000013
#02919:000000000000001300000000
#02915:00130013000000130000000000130000
#02918:0013001300000013
#0291b:23132313
#00813:0000001200000000
#00814:1200000000120000
#00812:00000000000000000000000012001212
#00817:00000012000000000000000000000000
#0081b:13131313
#01018:0000000000120000
#0101a:00000012000000000000001200001200
#0101c:12000000000000000000000000000012
#01012:1313
#01015:00130013
#01010:41
#01316:00000012000000000000140000000000
#0131b:1313
#01318:00130000
#01312:00000025
#01319:00000025
#0221b:23130013
#02218:000013131313
#02215:000000130013001300130013
#02212:2313
#0221f:11
#05612:130000000000000000000000130000000000000000000000000000000000000000001300000000000000000000130000
#05616:000000000000000000000000001300000000000000000000
#05614:0000000000130000
#05617:000013
#05619:000000000000001300000000
#05615:00001300001300130000000000130000
#05618:00130013000013000000000000001300
#0561b:23232323
#04612:2400130000140000
#0461a:24000000000000000013000000000000
#04614:0000001300000000
#04616:00000000001300001300000000000000
#04618:00000000000000130000000000000000
#0461b:00000013
#04619:0000000000000013
#04617:00000000000000000000000000130000
#04615:00000000000000000000000000000013
#05015:00000000130000001300000000130013
#05018:00000000001300130000130013000000
#05012:2400001300160000
#0501b:00000000000000000013000000001300
#0501a:24
#0071c:0000001200000000000000000000000000000000000000000000000000000000
#0071b:0000000000000013
#00712:1300130013130000
#00716:0000000000000013
#00717:0000000000130000
#00714:00000013
#00719:00000013
#01612:1300001300000000
#01618:00000013000000000000000013000000
#0161b:1300000000000000001300000000000000000000130000000000000000000000
#01615:0000001300000000000000000000000000000000000013000000000000000000
#01617:00000000000000000000000000001313
#0041b:0013000013000013
#00418:23000000130000130000000013000000
#00415:00130000000013000000130000130000
#00412:0013000013000013
#04515:00001300000013000013000000000013
#04512:23000000230000001300001300130000
#04518:00130000000000130000130000001300
#0451b:13000013001300002300000023000000
#0471a:0014000000140000
#04713:00130000000000000000000000000000
#04717:13
#04712:0000130000140000
#04714:0000001300000000
#04716:00000000001300001300000025000000
#04718:00000000000000130000000000000000
#04715:0000000000000025
#05315:00130000000013001300000000130000
#05318:23001300000000130000000013001300
#0531b:00131300
#05312:0013000000130013
#05310:41
#05412:00000000001313000000000000000000
#05416:00000000000000000013000000000000
#05417:0000001300000000
#0541b:13000013000000000013000000000000
#05415:0013000000000000
#05512:0013000013000013
#05515:13000000130000130000000013000000
#05518:00130000000013000000130000130000
#0551b:0013000013000013
#0091b:13131313
#00916:0000001200000000000000001300000000000000130000000000000000000000
#00912:00000013
#01112:1300000013130000
#01115:00130000
#01118:0000000000000012000000000000000000000000000000000000000000000000
#01114:00000013
#01116:0000000000000013
#01117:0000000000130000
#01119:00000013
#0111b:0000000000000013
#01716:00000000001300000000130000000000
#0171b:0000131300000013
#01712:0013000000000000
#01717:0013000013000000
#01817:0000000000130000
#01816:13000013130000000000000000001300
#0181b:00000000000013000000000000001313
#01818:0013
#01815:00000000000000130000000000000000
#01812:13000000000000000000131300000000
#01810:41
#01917:0013000000000000
#01912:0013000013000000
#0191b:00000000001300000000130000000000
#01916:0000131300000000
#01915:0000000000000013
#03512:00130000001300000000000014000000
#03515:23000013000000000000000000001300
#03518:0013000000000000
#0351b:2300130000000013
#0351a:0000001400000000
#03516:00000000000000000014000000000000
#0381b:00000013000000001300000000000000
#03817:13000013000023000000000000000000
#03816:0013
#03812:23
#03912:000000000000140000000000000000000000000000000000340034143400000000000000000000000000000000000000
#03915:00000000000000000000000000000013
#03918:0000000000000013
#0391a:00000000001414000000000000000000
#03916:00000014000014000000000000000000
#0391b:00000013
#03914:000000000000000000003400000000003434000000000000
#03913:000000000000000000000034000000340000000000000000
#0401b:13000000000000001300002300001300
#04016:0000000000230013
#04012:13000023000000001300000000000000
#04018:00000000000000130000000000000000
#04015:0000001300000000
#04017:0023000000000000
#04117:13
#04118:000000000000000000003400000000003434000000130000
#04112:13000000001414000000000013001300
#0411a:000000000000140000000000000000000000000000000000340034143400000000000000000000000000000000000000
#04116:00000014000014000000000000000000
#04119:000000000000000000000034000000340000000000000000
#04212:00130000001300000000140014000000
#04215:23000013000000000000000000001300
#04218:0013000000000000
#0421b:23000000130000000013000000001300
#04217:0000001300000000
#04210:41
#0431b:00130000001300000000000000000000
#04318:23000013000000000000000000001300
#04315:0013000000000000
#04312:23000000130000000013000000001300
#0431a:0000000000141400
#04316:0000001300000000
#05118:1316121214141616
#05112:00130000000000000000000000160016
#05115:0013000000000000
#05116:00000000001200120000000000000000
#05114:00000000000000000014001400000000
#05712:2c
#00255:0053000000000053
#00252:00230000
#00258:0063
#0025b:0000000000230000
#0035b:0000006300004300
#00352:23000000000000000023000000000000
#00357:00000000000000000023000000000000
#00356:0000005300000000
#02457:63
#02456:0053
#04952:00530000
#04955:0000002300000000
#0495b:0063
#04958:0046000000230000
#03452:0000006400000000
#03456:00000000000000000024000000000000
#0445b:00000023000000000000000000000000
#04458:53
#04455:0063
#04452:00000000000000000000002300000000
#05052:3400000000360000
#0505a:44
#0305b:6300004300000000
#03056:00000023000033000000000000000000
#04652:3400000000140000
#0465a:44
#0235b:0043
#02556:63
#02557:00530000
#02652:33
#0265b:43
#05257:12
#01457:63
#01652:53
#01658:00000053000000000000000000000000
#01655:0000002300000000000000000000000000000000000000000000000000000000
#0165b:0000000000000000002300000000000000000000000000000000000000000000
#02852:00330033
#0285b:4343
#03255:0033000000000000
#0325b:00000043000000000000000000000000
#03258:0000000000430000
#03252:00000000000000000000003300000000
#03156:00000000000000000023000000000000
#03152:0000006300000000
#0045b:0053000000000053
#00458:00230000
#00452:0063
#00455:0000000000230000
#00558:23
#03658:00000063000000000000000000000000
#03655:0063
#04852:0000000000360000
#05358:0063000000000063
#0535b:00230000
#05355:0053
#05352:0000000000230000
#05452:0000005300003300
#05456:00000000000000000023000000000000
#05457:0000006300000000
#0545b:23000000000000000023000000000000
#05552:0063000000000000
#05555:00230000
#0555b:0053
#05558:0000000000230000
#0075c:0000002200000000000000000000000000000000000000000000000000000000
#00658:00000000000000000000000000000062
#00852:00000000000000000000000000000062
#00956:0000002200000000000000000000000000000000000000000000000000000000
#0105c:00000000000000000000000000000052
#01158:0000000000000022000000000000000000000000000000000000000000000000
#01252:0000000000000062
#01356:00000022000000000000000000000000
#01856:53
#0155b:0063000043000000
#01557:00000000002300000000000000000000
#01957:0063000033000000
#0195b:00000000002300000000000000000000
#02252:33
#0225b:43
#02752:0033
#03956:0000005400000000
#03952:00000000000000000024000000000000
#04252:00000034
#04257:0000006300003300
#0425b:00000000000000000023000000000000
#03852:5300003300000000
#03857:00000023000043000000000000000000
#04057:0043000000000000
#04052:00000033000000000000000000000000
#04056:0000000000330000
#0405b:00000000000000000000004300000000
#0475a:0014000000000000
#04756:00000045
#04755:0000000000000035
#05158:0046000000000000
#05752:6c
#02058:0000000000000023
#0335b:0000005300000000
#03357:00000000000000000023000000000000
#04156:0000006400000000
#0415a:00000000000000000024000000000000
#01752:0053000033000000
#01756:00000000002300000000000000000000
#0355a:0000005400000000
#03556:00000000000000000024000000000000
#0435a:00000044
#04356:0000005300004300
#04352:00000000000000000023000000000000
#000340:0012002200000000
#0003c0:00001222
#000320:0000000000000012
#001320:0022000000000000
#0013c0:00122200
#002350:0013002300000000
#002320:00530000
#002380:00001323
#0023b0:0000000000530000
#002350:0000000000000013
#003320:53
#003350:0023000000000000
#0033b0:0000001300002300
#003370:00000000000000000053000000000000
#003361:0000001300002300
#003321:00000000000000000053000000000000
#0043b1:0013002300000000
#004381:00530000
#004321:00001323
#004351:0000000000530000
#0043b1:0000000000000013
#005381:53
#0053b1:0023000000000000
#006381:0000001200000000
#0063a1:00000000000000320000000000000000
#0063c1:0022
#006381:00000000000000000000000000000012
#0073c1:0000005200000000000000000000000000000000000000000000000000000000
#007381:00220000
#008321:00000000000000000000000000000012
#009361:0000005200000000000000000000000000000000000000000000000000000000
#009321:00220000
#0103c1:0000001200000000
#0103a1:00000000000000320000000000000000
#010381:0022
#0103c1:00000000000000000000000000000012
#011381:0000000000000052000000000000000000000000000000000000000000000000
#0113c1:0022
#012361:0000001200000000
#012341:00000000000000320000000000000000
#012321:0022
#012321:0000000000000012
#013361:00000052000000000000000000000000
#013321:0022
#014371:13
#014321:00000023000000000000000000000000
#0143b1:00000000000000000000132300000000
#014321:00000000000000000000000000001323
#0153b1:0013000023000000
#015371:00000000005300000000000000000000
#015321:0000000000132300
#015370:0000000000001323
#016320:13000023000000000000000000000000
#016350:0000005300000000000000000000000000000000000000000000000000000000
#016381:00000013000023000000000000000000
#0163b1:0000000000000000005300000000000000000000000000000000000000000000
#016321:00000000000000000000000000001323
#017321:0013000023000000
#017361:00000000005300000000000000000000
#0173b1:0000000000132300
#017360:0000000000001323
#018360:13
#0183b0:00230000
#019370:0013000023000000
#0193b0:00000000005300000000000000000000
#019320:0000000000130000
#019350:00000023
#0193b1:00000013
#019381:0000000000000023
#020381:0000000000000013
#021351:00290000
#0233b1:001333230000
#023381:000000330033000000000000
#024371:13
#024321:002300000000
#024361:0013
#0243b1:000023
#025361:13
#025321:002300000000
#025371:00130000
#0253b1:000000000023000000000000
#027321:001333230000
#027351:000000330033000000000000
#028381:0013230000000000
#028351:0000001323000000
#028381:0000000000132300
#0303b1:1300002300000000
#030361:00000033000000000000000000000000
#0303b1:0000000000130000
#030371:00000023
#030360:0000000000130000
#030320:00000023
#0303b0:0000000000000013
#031370:23
#030361:0000000000000013
#031321:23
#031321:0000001300002300
#031341:000000000000000000003300000000003333000000000000
#031351:000000000000000000000033000000330000000000000000
#031361:000000000000000000000000000000000000000000000000330033533300000000000000000000000000000000000000
#0323b1:00001323000000000000000000000000
#032321:00000000000000000000132300000000
#0333b1:0000001300002300
#033391:000000000000000000003300000000003333000000000000
#033381:000000000000000000000033000000330000000000000000
#033371:000000000000000000000000000000000000000000000000330033533300000000000000000000000000000000000000
#034321:0000001400002400
#034361:00000000000000000054000000000000
#0353a1:0000001400002400
#035361:00000000000000000054000000000000
#036381:00000013000000000000000000000000
#0363b1:0000002300000000
#036351:0013
#036321:0000000000230000
#038321:1300002300000000
#038371:00000033000000000000000000000000
#038321:0000000000130000
#038361:00000023
#038370:0000000000130000
#0383b0:00000023
#038320:0000000000000013
#039360:23
#038371:0000000000000013
#0393b1:23
#039361:0000001400002400
#039341:000000000000000000003400000000003434000000000000
#039331:000000000000000000000034000000340000000000000000
#039321:000000000000000000000000000000000000000000000000340034543400000000000000000000000000000000000000
#040321:00001323000000000000000000000000
#0403b1:00000000000000000000132300000000
#041361:0000001400002400
#041381:000000000000000000003400000000003434000000000000
#041391:000000000000000000000034000000340000000000000000
#0413a1:000000000000000000000000000000000000000000000000340034543400000000000000000000000000000000000000
#042371:0000001300002300
#0423b1:00000000000000000053000000000000
#043361:0000001300002300
#043321:00000000000000000053000000000000
#044381:1300002300000000
#0443b1:00000053000000000000000000000000
#044351:0000000013000023
#044321:00000000000000000000005300000000
#049321:00132300
#049351:0000005300000000
#0493b0:00001323
#049380:0000000000530000
#053380:0013002300000000
#0533b0:00530000
#053350:00001323
#053320:0000000000530000
#053380:0000000000000013
#0543b0:53
#054380:0023000000000000
#054320:0000001300002300
#054360:00000000000000000053000000000000
#054371:0000001300002300
#0543b1:00000000000000000053000000000000
#055321:0013002300000000
#055351:00530000
#0553b1:00001323
#055381:0000000000530000
#057321:1c
#059371:22
