This file was generated by Ched 2.6.2.0.
#TITLE ""
#ARTIST ""
#DESIGNER ""
#DIFFICULTY 0
#PLAYLEVEL
#SONGID ""
#WAVE ""
#WAVEOFFSET 0
#JACKET ""
#REQUEST "ticks_per_beat 480"
#00002: 4
#BPM01: 133
#00008: 01
#TIL00: ""
#HISPEED 00
#MEASUREHS 00
#0021a:1414
#00214:00140014
#00210:41
#00412:1414
#00418:00140014
#0061a:1414
#00614:00140014
#00812:1414
#00818:00140014
#0101a:14
#01014:00140000
#01018:0014
#01012:00000014
#01010:41
#01212:14
#01218:00140000
#01214:0014
#0121a:00000014
#0141a:14
#01412:14
#01418:00140014
#01414:0014
#01512:14
#01612:14
#0161a:14
#01614:00140014
#01618:0014
#0171a:14
#0181a:14000014
#01812:1414
#01818:00140000
#01810:41
#01914:14
#02012:14000014
#0201a:1414
#02014:00140000
#02118:14
#02217:0000000000140000
#0221a:000000143434343434343434
#0221f:11
#02312:00140000
#02318:00140000
#0231a:0014
#02314:0014
#02514:00140000
#02518:0014
#02615:0000000000140000
#02612:000000143434343434343434
#0271a:00140000
#02714:00140000
#02712:0014
#02718:0014
#0281a:14141414
#02814:0014001400140000
#02912:14141400
#02918:0014001400000000
#03212:14
#03218:14
#0321a:0014
#03214:0014
#0341a:0000001400000000
#03512:0000001400000000
#0361a:14
#03614:00141414
#03618:0000001400140014
#03714:14
#0401a:14
#04014:14
#04012:0014
#04018:0014
#04212:0000001400000000
#04210:41
#0431a:0000001400000000
#04412:14
#0441a:0014
#04512:14140000
#04518:14140000
#04514:00001414
#0451a:00001414
#0461a:00141400
#04614:0000001400000000
#04612:24000014
#04618:0000000000000014
#04712:14
#0471a:00141414
#04714:0000001400140000
#04812:14000014
#0481a:00140000
#04814:0000001400000000
#04818:0000000014000014
#04914:14
#0491a:00140014
#04912:0000001400140000
#04918:0014
#05018:00140000
#05012:2400001400000000
#0501a:0000000014000014
#05014:00000014
#05112:1400000000140000
#0511a:00140014
#05114:0000001400000014
#05118:0014
#0531a:14
#05314:00140000
#05318:0014
#05312:00000014
#05310:41
#05512:14
#05518:00140000
#05514:0014
#0551a:00000014
#05718:16
#05218:14
#0301a:24140000
#03018:00001414
#03012:0014
#03014:24
#0301f:21
#0311a:14141400
#03114:0014001400000000
#03110:41
#03812:24140000
#03814:00001414
#0381a:0014
#03818:24
#03912:14141400
#03918:0014001400000000
#00116:00003434340000003434340000000000
#00016:00343400000034343400000034343400
#01552:54
#0175a:64
#01954:54
#02158:64
#0225a:00540000
#02257:0000000000240000
#02655:0000000000240000
#02652:00640000
#0345a:0000005400000000
#03552:0000006400000000
#04252:0000006400000000
#0435a:0000005400000000
#04452:54
#0445a:0054
#0475a:00000014
#0495a:00000014
#05758:56
#000360:14343400000034343400000034343400
#001360:00003434340000003434340000000000
#001320:0000002c
#0033a0:14003434003434000000000024000000
#005320:14003434003434000000000024000000
#0073a0:14
#007380:0024
#009320:14
#009340:0024
#011380:14
#0113a0:0024
#013340:14
#013320:0024
#015320:14
#015340:0024
#0173a0:14
#017380:0024
#019340:14
#019320:0024
#021380:14
#0213a0:0024
#0223a0:140000343434343434343434
#022370:0000000000540000
#0233a0:24
#024390:140034343434340034343434
#025390:24
#026320:140000343434343434343434
#026350:0000000000540000
#027320:24
#033320:1424
#033381:1424
#0343a1:1400003400000000
#034371:00000024
#035321:1400003400000000
#035351:00000024
#0413a1:1424
#041340:1424
#042320:1400003400000000
#042350:00000024
#0433a0:1400003400000000
#043370:00000024
#044320:14
#044340:00240000
#0443a0:0014
#044380:00000024
#054380:14003434003434000000000024000000
#056340:14003434003434000000000024000000
#057380:16
#059380:23
