This file was generated by Ched 2.6.2.0.
#TITLE ""
#ARTIST ""
#DESIGNER ""
#DIFFICULTY 0
#PLAYLEVEL
#SONGID ""
#WAVE ""
#WAVEOFFSET 0
#JACKET ""
#REQUEST "ticks_per_beat 480"
#00002: 4
#BPM01: 160
#00008: 01
#TIL00: ""
#HISPEED 00
#MEASUREHS 00
#00119:14
#00213:14
#00319:14
#00413:14
#01719:14
#01710:41
#01819:14
#01919:14
#02019:14
#0251a:14
#02510:41
#02614:14
#0271a:14
#02814:14
#0291a:14
#0301a:14
#03114:14
#03214:14
#04119:14
#0411f:11
#04213:14
#04918:2616
#0491f:21
#05018:1616
#05319:14
#05312:0014
#05419:14
#05412:0014
#06912:16
#00519:14
#00613:14
#00719:14
#00813:14
#00919:14
#00910:41
#01019:14
#01113:14
#01213:14
#01318:14
#01414:14
#01518:14
#01614:14
#02113:14
#02213:14
#02313:14
#02413:14
#03312:14
#03310:41
#03418:14
#03512:14
#03618:14
#03712:14
#03812:14
#03918:14
#04018:14
#04010:41
#04513:14
#04619:14
#05112:2616
#05110:41
#05212:1616
#05519:14
#05613:14
#05712:2616
#05812:1616
#06113:14
#0611a:0014
#06213:14
#0621a:0014
#05918:2616
#06018:1616
#043390:14
#044390:24
#047330:14
#048330:24
#063330:14
#064330:24
#065380:16
#068380:0026
