This file was generated by Ched 2.6.2.0.
#TITLE ""
#ARTIST ""
#DESIGNER ""
#DIFFICULTY 0
#PLAYLEVEL
#SONGID ""
#WAVE ""
#WAVEOFFSET 0
#JACKET ""
#REQUEST "ticks_per_beat 480"
#00002: 4
#BPM01: 160
#00008: 01
#TIL00: ""
#HISPEED 00
#MEASUREHS 00
#0161b:00130000
#01616:00130000
#01612:0013
#01617:0013
#01614:00000024
#0161a:00000024
#0171b:0000130013000013
#01717:0000001300001300
#01712:1c00001300001300
#01716:0000130013000013
#01710:41
#02916:0013
#02917:00130000
#02912:00130000
#02914:28
#0311b:0013000000000000
#03116:00140000
#03112:0000001300000000
#03115:0013
#03219:0000000000130000
#03217:0013
#03214:0000001300000013
#0321b:00130013
#03216:00000013
#03212:0013
#03012:0000000000130000
#02516:0000001200000000
#0251a:0012
#02514:0000000000120000
#02518:0000000000001212
#0251b:23
#02510:41
#02618:0000001200000000
#02614:0012
#0261a:0000000000120000
#02616:0000000000001212
#02716:0000001200000000
#0271a:0012
#02714:0000000000120000
#02718:0000000000001212
#02814:0000001200000000
#02818:0012
#02816:0000000000120000
#02812:00000012
#0281c:00000012
#03318:0000001200000000
#03314:0012
#0331a:0000000000120000
#03316:0000000000001212
#03312:23
#0331b:23
#03310:41
#03416:0000001200000000
#0341a:0012
#03414:0000000000120000
#03418:0000000000001212
#03518:0000001200000000
#03514:0012
#0351a:0000000000120000
#03516:0000000000001212
#0361a:0000001200000000
#03616:0012
#03618:0000000000120000
#0361c:00000012
#03612:00000012
#03715:00130000
#0371b:0000001300000000
#03714:28
#03916:0014001400140014
#0391b:13
#0431b:1300000000000013
#04312:0000001300000000
#04318:0000000000130000
#04315:00000013
#04316:13
#0691b:13
#06912:13
#04712:00130000
#04719:0000000000000014
#04713:0000000000000014
#0471b:00130000
#04718:13000000000000130000000000000000
#04715:00000000000000130000000000000000
#04812:16
#04818:1600000000130013
#04815:00000013
#00018:0000000000130013
#00015:00000013
#00115:1300130000130000
#00118:0000001300000013
#00112:0000001300000000
#0011b:00130000
#00212:00130000
#0021b:00130000000000000000000000000000
#00215:0000000000130013
#00218:00000013
#00318:1300130000130000
#00315:0000001300000013
#0031b:0000001300000000
#00312:00130000
#0041b:00130000
#00412:00130000000000000000000000000000
#00418:0000000000130013
#00415:00000013
#00912:13131313
#0091b:1300000000130000
#00919:00130000
#00917:0000001300000013
#00910:41
#01012:13131313
#01018:0000000000130013
#0101b:00000013
#0111b:13131313
#01112:1300000000130000
#01114:00130000
#01116:0000001300000013
#0121b:13131313
#01212:00000013
#01215:0000000000130013
#00818:0000140000130013
#00815:00000013
#00812:14
#00814:00140000
#0081a:14
#0131b:0000001300001300
#01318:0000000000130013
#01315:00000013
#01312:23
#01415:0000000000130000
#0141b:2300000000130000
#01419:0000000000000013
#01412:0000001300000000
#0141a:00000013
#01414:00000013
#01413:0000000000000013
#0151b:00000013000000000000000000000000
#01513:00000000000013333333333333333333
#01515:00000013000000000000000000000000
#0151a:00000000000013333333333333333333
#01512:23
#01518:23
#0651a:0000001200000000
#06514:0000000000000012
#06517:22222222
#06619:0000001300000000
#06612:00001313
#0661b:0000000000130000
#06616:2400240024242400
#06812:0000001600001300
#06816:0000000000000014
#0681b:00000013
#06814:28280000
#06813:002a
#06719:0000000000000014
#06713:0000001400000000
#06715:26262626
#00515:1300130000130000
#00518:0000001300000013
#00512:0000001300000000
#0051b:00130000
#00612:0000131300000000
#0061b:00130000000013000000000000000000
#0071b:1300000000000013
#00715:0013000000000000
#00717:00130000
#00712:0000130000130000
#00718:00000013
#00716:0000000000000013
#01815:0000001300000000
#01812:13131300
#01818:0000001300000000
#0181b:00130000
#01817:13
#01912:1c00130013000013
#01916:0000001300001300
#01917:0000130013000013
#0191b:0000001300001300
#0201b:1313
#02016:1313
#02012:00130024
#02017:00130000
#02018:00000024
#02112:1c
#02116:00001313
#02114:0000000000000013
#02117:00130000
#02119:0000001300000000
#0211b:0013
#02217:13
#02218:0000001300000000
#0221b:00131300
#02215:0000001300000000
#02212:13130000
#02312:1c13
#02317:00001313
#02319:0000000000000013
#02316:00130000
#02314:0000001300000000
#02412:001600260016000000000000
#02418:260000000000000016000000000000001600000000000000000000330000000000000000000000000000000000000000
#02419:0000000000330000
#0241a:00000000000000000000003300000000
#02415:00000000000000000000000000330000
#02414:0000000000000033
#02413:00000000000000000000000000000033
#04512:13000013000000000000000000003300
#04518:1300000000000013
#04515:0000001313000000
#0451b:00000000000033000000001300000000
#0451a:00000033000000000000000000000000
#04513:00000000000000000000003300000000
#05617:00130000
#05612:0000130000130000
#05615:00000013
#05618:0000000000000013
#0561b:13
#05616:13
#04915:2300001300000000
#04912:0000130000000013
#0491b:2300001300130000
#04918:00130000
#0491f:21
#0541b:00131300
#05418:0000001300000000
#05413:0000001300000000
#05417:00000013
#05416:0013
#06012:1300000000130013
#06016:00130013
#06018:1313
#0601b:00130000
#06116:1300001300000000
#06112:00000013000000000000000000000000
#06117:00000013000000000000000013000000
#0611b:0000001300130013
#0641b:00130000
#06412:00001324
#06415:00230000
#0641a:00000024
#06418:0023
#0621b:00000013000000000000000000000000
#06216:00000013000000000000000013000000
#06212:0000001300130000
#06217:1300001300000013
#0631b:13
#06312:00000013000000000000000000000000
#06317:00000013000000000000000000000000
#0501b:13131300
#05015:0000000000130013
#05018:00000013
#05016:00130000
#05218:0000000000130013
#05215:00000013
#05212:13131300
#05217:00130000
#05315:1300001300000000
#05312:0000130000000013
#0531b:1300001300130000
#05318:00130000
#05712:00130013
#05715:2313
#05718:2300130000130013
#0571b:0000001300000000
#05815:1300000013000013
#05812:00130013
#0581b:1300000000130000
#05818:00000013
#05817:00130000
#03812:00130000
#03815:0000000000000013
#05118:1300001300000000
#0511b:0000130000000013
#05112:1300001300130000
#05115:00130000
#05110:41
#0591b:00130013
#05918:2313
#05915:2300130000130013
#05912:0000001300000000
#05516:1300000000000023
#05514:0013000000000000
#05517:0000230000130000
#05519:00000013
#05512:0000230000130000
#0551b:0000000000000023
#04012:1313
#04015:0013000000130000
#0401b:00130013
#04018:0000001300000013
#04010:41
#04116:00000012000000000000000000000000
#04118:00000000000000000000001200000000
#04114:0000000000000012
#0411c:0012
#04115:0012
#0411a:0000001200000000
#0411f:11
#04112:22
#04212:12
#04216:00000012000000000000000000000000
#0421a:0000001200000000
#0421c:0012
#04218:00000000000000000000001200000000
#04214:0000000000000012
#04219:12
#04215:0012
#04412:13
#04417:13
#04618:1300000000000013
#04615:0000001313000000
#04612:00000013000000000000000000003300
#0461b:00000000000033000000001300000000
#0461a:00000033000000000000000000000000
#04613:00000000000000000000003300000000
#03058:00000000000000000000000000000013
#03055:00000000000000000000000000000013
#0435b:53
#0405b:43634363
#04052:53335333
#04055:0023000000230000
#04058:0000002300000023
#04752:00530000
#0475b:00630000
#04755:00000000000000230000000000000000
#04758:00000000000000230000000000000000
#00158:0000006300000053
#00155:0000000000630000
#0025b:00230000000000000000000000000000
#00355:0000005300000063
#00358:0000000000530000
#00452:00230000000000000000000000000000
#01156:0000000000000063
#00957:0000000000000063
#0135b:0000001300000000
#01452:0000001300000000
#06652:00000033
#00558:0000006300000053
#00555:0000000000630000
#0065b:00230000000000000000000000000000
#00852:54
#00854:00240000
#0085a:64
#00858:00240000
#00752:00130000
#0075b:0000000000000013
#01855:0000006300000000
#01852:0023
#02258:0000005300000000
#0225b:0023
#01553:0000002300000000
#0155a:0000002300000000
#06356:13
#04955:1300005300000000
#0495b:0000000000530000
#04952:0000000000000053
#05355:1300005300000000
#05352:0000000000000053
#0535b:0000000000530000
#0585b:53
#05857:00230000
#0165a:00000044
#01654:00000034
#01656:00330000
#0165b:00430000
#01652:0033
#01657:0043
#04552:13
#04558:63
#0455b:0013
#04555:0053
#05158:1300006300000000
#05152:0000000000630000
#0515b:0000000000000053
#05457:00000053
#05456:0063
#06052:63
#06056:00230000
#0645a:00000044
#0645b:00430000
#06455:00430000
#06452:00003334
#06458:0033
#05552:00130000
#0555b:0000000000000013
#05557:00130000
#05556:0000000000000013
#05656:23
#0565b:23
#05652:00530000
#05657:00530000
#02052:00330034
#02057:00430000
#0205b:0043
#02056:0033
#02058:00000044
#05056:00530000
#05257:00530000
#05758:13
#04652:13
#04658:63
#0465b:0013
#04655:0053
#04852:36
#04858:46
#05955:13
#06156:3300003300000000
#06257:4300004300000000
#001380:0000001300000000
#0013b0:0000000000230000
#001351:0000000000130000
#001321:0000000000000023
#001380:0000000000000013
#0023b0:00530000000000000000000000000000
#002380:00230000
#003350:0000001300000000
#003320:0000000000230000
#003381:0000000000130000
#0033b1:0000000000000023
#003350:0000000000000013
#004320:00530000000000000000000000000000
#004350:00230000
#005380:0000001300000000
#0053b0:0000000000230000
#005351:0000000000130000
#005321:0000000000000023
#005380:0000000000000013
#0063b0:00530000000000000000000000000000
#006380:00230000
#006340:00001323
#006391:00001323
#008321:1424
#008341:00540000
#0083a0:1424
#008380:00540000
#009370:0000000000000013
#0103b0:00532300
#011360:0000000000000013
#012320:00532300
#0133b0:13
#013380:00000023000000000000000000000000
#013351:00000013000000000000000000000000
#013321:0000002300000000
#014321:13
#014351:00000023000000000000000000000000
#014380:00000013000000000000000000000000
#0143b0:0000002300000000
#015330:00000000000013333333333333333333
#016320:25
#0153a1:00000000000013333333333333333333
#016391:25
#018351:0000001300332300
#018321:0053
#0183b0:0000000000132300
#021320:00130000
#021340:0000002300000000
#0213b0:00000013
#021390:0000000000000023
#022380:0000001300332300
#0223b0:0053
#022321:0000000000132300
#0233b1:00130000
#023391:0000002300000000
#023321:00000013
#023341:0000000000000023
#024371:0013
#024381:00000000000000000033000000000000
#024391:0000000000330000
#0243a1:00000000000000000000003300000000
#0243b1:00000023
#024360:00000013
#024350:00000000000000000000000000330000
#024340:0000000000000033
#024330:00000000000000000000000000000033
#025320:23
#025320:0000000000000012
#026320:0000002200000000
#0263c0:0000000000000012
#0273c0:0000002200000000
#027320:0000000000000012
#028320:0022000000000000
#0283a1:0012002200000000
#0293b1:0000000000000000000000000000000013535353230000000000000000000000
#0293a1:00000000000000000000000000000000000000000000000000000000000000000053005300530053000000000000000000000000000000000000000000000000
#029320:0000000000000000000000000000000000000000135353532300000000000000
#029330:00000000000000000000000000000000000000000000000000000000000000000000000000000000005300530053005300000000000000000000000000000000
#029381:0000000000000000000000000000000000000000000000001353535323000000
#029391:00000000000000000000000000000000000000000000000000000000000000000000000000000000000000000000000000530053005300530000000000000000
#029350:0000000000000000000000000000000000000000000000000000000013535353
#029340:00000000000000000000000000000000000000000000000000000000000000000000000000000000000000000000000000000000000000000053005300530053
#030350:23
#0303b1:1353535323000000000000000000000000000000000000000000000000000000
#0303a1:00530053005300530000000000000000000000000000000000000000000000000000000000000000000000000000000000000000000000000000000000000000
#030320:0000000013535353230000000000000000000000000000000000000000000000
#030330:00000000000000000053005300530053000000000000000000000000000000000000000000000000000000000000000000000000000000000000000000000000
#030381:0000000000000000135353532300000000000000000000000000000000000000
#030391:00000000000000000000000000000000005300530053005300000000000000000000000000000000000000000000000000000000000000000000000000000000
#030350:0000000000000000000000001353535323000000000000000000000000000000
#030340:00000000000000000000000000000000000000000000000000530053005300530000000000000000000000000000000000000000000000000000000000000000
#0303b1:0000000000000000000000000000000013535353230000000000000000000000
#0303a1:00000000000000000000000000000000000000000000000000000000000000000053005300530053000000000000000000000000000000000000000000000000
#030381:0000000000000000000000000000000000000000000000001353535353532300
#030391:00000000000000000000000000000000000000000000000000000000000000000000000000000000000000000000000000530053005300530053005300000000
#030350:0000000000000000000000000000000000000000000000001353535353532300
#030340:00000000000000000000000000000000000000000000000000000000000000000000000000000000000000000000000000530053005300530053005300000000
#0313b0:0000000000000000000000000000000013530000000000000000000000000000
#0313a0:00000000000000000000000000000000000000000000000000000000000000000053000053000000000000000000000000000000000000000000000000000000
#031390:00000000000000000000000000000000000000000000000000000000000000000000005300005300000000000000000000000000000000000000000000000000
#031380:00000000000000000000000000000000000000000000000000000000000000000000000000530000230000000000000000000000000000000000000000000000
#031370:00000000000000000000000000000000000000000000000000000000000000000000000000000053000000000000000000000000000000000000000000000000
#031321:0000000000000000000000000000000000000000135300000000000000000000
#031331:00000000000000000000000000000000000000000000000000000000000000000000000000000000005300005300000000000000000000000000000000000000
#031341:00000000000000000000000000000000000000000000000000000000000000000000000000000000000000530000530000000000000000000000000000000000
#031351:00000000000000000000000000000000000000000000000000000000000000000000000000000000000000000053000023000000000000000000000000000000
#031361:00000000000000000000000000000000000000000000000000000000000000000000000000000000000000000000005300000000000000000000000000000000
#031380:00000000000000000000000000000000000000000000000000000000000000000000000000000000000000000000000013000053000000000000000000000000
#031370:00000000000000000000000000000000000000000000000000000000000000000000000000000000000000000000000000530000000000000000000000000000
#031390:00000000000000000000000000000000000000000000000000000000000000000000000000000000000000000000000000005300005300000000000000000000
#0313a0:00000000000000000000000000000000000000000000000000000000000000000000000000000000000000000000000000000000530000530000000000000000
#0313b0:0000000000000000000000000000000000000000000000000000005323000000
#031351:00000000000000000000000000000000000000000000000000000000000000000000000000000000000000000000000000000000000000001300005300000000
#031361:00000000000000000000000000000000000000000000000000000000000000000000000000000000000000000000000000000000000000000053000000000000
#031341:00000000000000000000000000000000000000000000000000000000000000000000000000000000000000000000000000000000000000000000530000530000
#031331:00000000000000000000000000000000000000000000000000000000000000000000000000000000000000000000000000000000000000000000000053000053
#031321:0000000000000000000000000000000000000000000000000000000000000053
#032321:23
#0323b0:1353000000000000000000000000000000000000000000000000000000000000
#0323a0:00530000530000000000000000000000000000000000000000000000000000000000000000000000000000000000000000000000000000000000000000000000
#032390:00000053000053000000000000000000000000000000000000000000000000000000000000000000000000000000000000000000000000000000000000000000
#032380:00000000005300002300000000000000000000000000000000000000000000000000000000000000000000000000000000000000000000000000000000000000
#032370:00000000000000530000000000000000000000000000000000000000000000000000000000000000000000000000000000000000000000000000000000000000
#032321:0000000013530000000000000000000000000000000000000000000000000000
#032331:00000000000000000053000053000000000000000000000000000000000000000000000000000000000000000000000000000000000000000000000000000000
#032341:00000000000000000000005300005300000000000000000000000000000000000000000000000000000000000000000000000000000000000000000000000000
#032351:00000000000000000000000000530000230000000000000000000000000000000000000000000000000000000000000000000000000000000000000000000000
#032361:00000000000000000000000000000053000000000000000000000000000000000000000000000000000000000000000000000000000000000000000000000000
#0333c1:0000000000000012
#0343c1:0000002200000000
#034321:0000000000000012
#035321:0000002200000000
#0353c1:0000000000000012
#0363c1:0022000000000000
#036340:0012002200000000
#037320:0000000000000000000000000000000013535353230000000000000000000000
#037330:00000000000000000000000000000000000000000000000000000000000000000053005300530053000000000000000000000000000000000000000000000000
#037371:0000000000000000000000000000000013535353230000000000000000000000
#037361:00000000000000000000000000000000000000000000000000000000000000000053005300530053000000000000000000000000000000000000000000000000
#037361:0000000000000000000000000000000000000000000000001353535323000000
#037371:00000000000000000000000000000000000000000000000000000000000000000000000000000000000000000000000000530053005300530000000000000000
#0373b0:0000000000000000000000000000000000000000000000001353535323000000
#0373a0:00000000000000000000000000000000000000000000000000000000000000000000000000000000000000000000000000530053005300530000000000000000
#038320:1353535323000000000000000000000000000000000000000000000000000000
#038330:00530053005300530000000000000000000000000000000000000000000000000000000000000000000000000000000000000000000000000000000000000000
#038371:1353535323000000000000000000000000000000000000000000000000000000
#038361:00530053005300530000000000000000000000000000000000000000000000000000000000000000000000000000000000000000000000000000000000000000
#0383a1:0000000000000000135353532300000000000000000000000000000000000000
#0383b1:00000000000000000000000000000000005300530053005300000000000000000000000000000000000000000000000000000000000000000000000000000000
#038350:0000000000000000000000001353535323000000000000000000000000000000
#038340:00000000000000000000000000000000000000000000000000530053005300530000000000000000000000000000000000000000000000000000000000000000
#038381:0000000000000000000000000000000013535353230000000000000000000000
#038391:00000000000000000000000000000000000000000000000000000000000000000053005300530053000000000000000000000000000000000000000000000000
#038330:0000000000000000000000000000000000000000135353532300000000000000
#038320:00000000000000000000000000000000000000000000000000000000000000000000000000000000005300530053005300000000000000000000000000000000
#0383a1:0000000000000000000000000000000000000000000000001353535323000000
#0383b1:00000000000000000000000000000000000000000000000000000000000000000000000000000000000000000000000000530053005300530000000000000000
#039321:1353535353535353230000000000000000000000000000000000000000000000
#039331:00530053005300530053005300530053000000000000000000000000000000000000000000000000000000000000000000000000000000000000000000000000
#0393b0:0000000000000000135353535353535323000000000000000000000000000000
#0393a0:00000000000000000000000000000000005300530053005300530053005300530000000000000000000000000000000000000000000000000000000000000000
#039321:0000000000000000000000000000000013535353535353532300000000000000
#039331:00000000000000000000000000000000000000000000000000000000000000000053005300530053005300530053005300000000000000000000000000000000
#0393b0:0000000000000000000000000000000000000000000000001353535353535353
#0393a0:00000000000000000000000000000000000000000000000000000000000000000000000000000000000000000000000000530053005300530053005300530053
#0403b0:23
#040321:13230000
#040351:0053000000000000
#0403b0:00132300
#040380:0000005300000000
#040321:00001323
#040351:0000000000530000
#0403b0:00000013
#040380:0000000000000053
#0413b0:23
#0433b0:13
#043370:0000002300000000
#0443a0:0000000000000000000000000000000013535353230000000000000000000000
#044390:00000000000000000000000000000000000000000000000000000000000000000053005300530053000000000000000000000000000000000000000000000000
#044330:0000000000000000000000000000000000000000000000001353535323000000
#044340:00000000000000000000000000000000000000000000000000000000000000000000000000000000000000000000000000530053005300530000000000000000
#045380:13
#0453a0:00000033000000000000000000000000
#0453b0:0000003323000000
#045351:0013
#045331:00000000000000000000003300000000
#045321:0000000000000033
#046321:23
#046380:13
#0463a0:00000033000000000000000000000000
#0463b0:0000003323000000
#046351:0013
#046331:00000000000000000000003300000000
#046321:0000000000000033
#047321:23
#047321:0000130000230000
#047351:00000000000000530000000000000000
#0473b0:0000130000230000
#047380:00000000000000530000000000000000
#049350:0000001300000000
#049320:0000000000230000
#0493b1:0000000000130000
#049381:0000000000000023
#049320:0000000000000013
#050360:00530000
#050320:0023
#051380:0000001300000000
#0513b0:0000000000230000
#051321:0000000000130000
#051351:0000000000000023
#0513b0:0000000000000013
#052370:00530000
#0523b0:0023
#053350:0000001300000000
#053320:0000000000230000
#0533b1:0000000000130000
#053381:0000000000000023
#053320:0000000000000013
#054360:00230000
#054360:0013
#054320:00000023
#054371:00000013
#0553b1:23
#056361:1323
#056321:00530000
#0563b0:1323
#056370:00530000
#0583b0:1323
#058370:00330000
#060320:1323
#060360:00330000
#060380:0000000000130033
#0603b0:00000033
#0613b0:23
#061350:0000000000130033
#061320:00000033
#062320:23
#062380:0000000000130000
#0623b0:00000023
#062320:0000000000000013
#063360:23
#063340:0000000000000000000000001253535353535353535353535353535353535353
#063330:00000000000000000000000000000000000000000000000000530053005300530053005300530053005300530053005300530053005300530053005300530053
#064340:22
#0633a1:00000000000000000000000000000000000000000000000012530053005300530053005300530053005300530053005300530053005300530053005300530053
#063391:0000000000000000000000000053535353535353535353535353535353535353
#0643a1:22
#0653c1:12220000
#065321:00001222
#0663b1:13230000
#067321:13230000
#0673b1:00001323
#068321:12220000
