This file was generated by Ched 2.6.2.0.
#TITLE ""
#ARTIST ""
#DESIGNER ""
#DIFFICULTY 0
#PLAYLEVEL
#SONGID ""
#WAVE ""
#WAVEOFFSET 0
#JACKET ""
#REQUEST "ticks_per_beat 480"
#00002: 4
#BPM01: 160
#00008: 01
#TIL00: ""
#HISPEED 00
#MEASUREHS 00
#03115:0013001300000000
#03118:00130000
#03218:0000001300130000
#03215:00000013
#03212:00131300
#0321b:0000000000000013
#02515:0000001300000000
#02518:0013
#02512:0000000000130000
#0251b:00000013
#02510:41
#02618:0013
#02612:0000000000130000
#0261b:00000013
#02718:0013
#02712:0000000000130000
#0271b:00000013
#02715:0000000000000013
#02815:0013
#02818:0000000000130000
#02812:00000013
#0281b:00000013
#0291b:00130000
#02912:00130000
#02915:26
#03715:26130000
#0371b:0000001300000000
#04318:0000000000130013
#04315:00000013
#04818:0000000000130013
#04815:00000013
#00018:0000000000130013
#00015:00000013
#00115:1300000000130000
#00118:0000001300000013
#00112:0000001300000000
#0011b:0000130000130000
#01218:00000013
#01212:0000000000130000
#01215:0000000000000013
#0121b:0000000000130000
#00815:0000000000130013
#00818:00001613
#00812:16
#00915:0000001300000013
#00918:0000000000130000
#00910:41
#01018:0000000000130013
#01015:00000013
#00418:0000000000130013
#00415:00000013
#00515:1300000000000013
#00512:0000001300000000
#0051b:0000130000000013
#00518:0000001300000000
#00516:0000000000140000
#00718:0013000000130000
#00715:13000013
#00712:00130000
#0071b:0000000000000013
#0611b:00000013000000000000000000000000
#06118:0000001300000000
#06115:00000013000000000000000000000000
#06112:0000001300000000
#06212:00000013000000000000130000000000
#06215:0000001300001300
#06218:00000013000000000000000000001300
#0621b:0000001300000000
#0631b:1300001300000000
#06312:00000013000000000000000000000000
#06318:00000013000000000000000000000000
#06315:0000001300000000
#04918:0000130000000013
#04912:0000000000000013
#04915:2300001300000000
#0491f:21
#0521b:0000000000130000
#05215:00000013
#05218:0000000000000013
#05312:1300130000000013
#05318:0000130000000013
#05315:0000001300000000
#0531b:0000001300000000
#05418:0000001300000000
#05412:0013
#0541b:00000013
#05415:00000013
#05612:0000000000130000
#05618:00000013
#05615:0000000000000013
#05712:0000130000000013
#05718:0000130000130000
#0571b:2300001300000000
#05715:0013
#05512:14240000
#05518:0014000000000000
#0551a:0000000000140024
#05514:00000014
#04115:00000013000000000000000000001300
#04118:00000000000013000000001300000000
#0411b:2313
#0411f:11
#04112:23
#04212:1313
#0421b:13
#04218:00000013000000000000000000001300
#04215:00000000000013000000001300000000
#04412:13
#0441b:13
#04415:0016
#00215:0000000000130013
#00218:00000013
#00318:1300000000130000
#00315:0000001300000013
#0031b:0000001300000000
#00312:0000130000130000
#00615:0000001300000000
#01118:0000001300000013
#01115:0000000000130000
#01318:1300000000000013
#01315:00000013
#0131b:0000000000130000
#01312:0000000000130000
#0131a:00000033000000000000000000000000
#01418:00000013
#01412:0000000000130013
#0141b:0000000000130013
#01415:13
#01413:00000033000000000000000000000000
#01517:00000014000000000000000000000000
#01515:2400000000000014
#01614:00140000
#01618:0014
#01612:00000024
#0161a:00000024
#01714:1400001400000000
#0171a:00141400
#01712:00000014
#01718:0000000000000014
#01710:41
#01812:1400001300000000
#01818:0000001300000000
#01918:1400001400000000
#01912:00141400
#0191a:00000014
#01914:0000000000000014
#0201a:14000024
#02018:00140000
#02014:0014
#02012:00000024
#02114:14
#0211a:0000140000000014
#02112:0000001400001400
#02118:0014
#02214:14
#0221b:0000001300000000
#02215:0000001300000000
#02318:14
#02312:0000140000000014
#0231a:0000001400001400
#02314:0014
#02414:001400000000000000000000
#0241a:240000000000000014000000000000000000000000000000000000340000340000340000000000340000340000340000
#02418:001400
#02412:000000240014000000000000
#03018:0014
#03014:0000000000140000
#03618:0013
#03615:0000000000130000
#0361b:00000013
#03612:00000013
#0381b:00130013
#03815:0000001300000013
#03818:0013
#03812:0000000000130000
#04013:1414
#04019:00140014
#04010:41
#0451a:24000014000014000000000000000000
#04514:00000000000000002400001400001400
#04618:24000014000014000000000000000000
#04612:00000000000000002400001400001400
#04712:00140000
#04714:0014
#0471a:00140000
#04718:0014
#05015:0000000000130013
#05018:00000013
#05815:00000013
#05818:0000000000000013
#0581b:0000000000130000
#0651b:0000000000130000
#06516:24242424
#06612:0000000000130000
#06616:24242424
#0671b:0000000000130000
#06715:26262626
#06812:0013001300000000
#06818:00000013
#06815:0000000000000013
#06814:28280000
#06813:002a
#0691a:14
#06912:14
#03518:0000000000000013
#03515:00000013
#0351b:0000000000130000
#03512:0013
#03318:0000001300000000
#03315:2313
#0331b:0000000000130000
#03312:00000013
#03310:41
#03415:0013
#0341b:0000000000130000
#03412:00000013
#0591b:0000130000000013
#05915:0000130000130000
#05912:2300001300000000
#05918:0013
#05115:0000130000000013
#0511b:0000000000000013
#05118:1300001300000000
#05110:41
#06412:00000024
#0641a:00000024
#06414:00240000
#06418:0024
#03058:00000000000000000000000000000014
#00158:0000000000000053
#00955:0000000000000053
#00752:00130000
#0075b:0000000000000013
#05352:1300000000000053
#05355:0000005300000000
#0535b:0000005300000000
#05358:0000000000000053
#04952:0000000000000053
#04955:1300005300000000
#04958:0000000000000053
#05552:00140000
#0555a:0000000000000014
#0575b:13
#05752:0000000000000063
#00355:0000000000000063
#00555:0000000000000053
#0055b:0000000000000053
#01158:0000000000000063
#01358:53
#0135b:0000001300000000
#01555:0000000000000024
#01654:00140000
#01658:0014
#01652:00000014
#0165a:00000014
#01858:0000005300000000
#01852:0000005300000000
#02058:00140000
#02054:0014
#0205a:00000014
#02052:00000014
#0225b:0000006300000000
#02255:0000006300000000
#04053:3434
#04059:00440044
#0485a:14
#04852:14
#04752:00640000
#0475a:00640000
#04754:0024
#04758:0024
#06452:00000014
#0645a:00000014
#06454:00140000
#06458:0014
#0635b:0000005300000000
#06355:0000005300000000
#0595b:0000000000000053
#05952:13
#01455:63
#01452:0000001300000000
#0515b:0000000000000063
#05155:0000000000000063
#05158:1300006300000000
#06158:0000001300000000
#06152:0000001300000000
#06255:0000001300000000
#0625b:0000001300000000
#001380:0000000000000013
#0023b0:00230000
#003350:0000000000000013
#004320:00230000
#005350:0000000000000013
#006320:00230000
#0053b1:0000000000000013
#006381:00230000
#006381:00001323
#009381:13230000
#009351:0000000000000013
#010321:00230000
#011351:13230000
#011381:0000000000000013
#0123b1:00230000
#013381:13
#0133a1:00000033000000000000000000000000
#0133b1:0000002300000000
#014351:13
#014331:00000033000000000000000000000000
#014321:0000002300000000
#015351:0000001400000054
#016321:2a
#018381:0000001300000000
#0183b1:0000000000332300
#018320:0000001300000000
#018350:0000000000332300
#022350:0000001300000000
#022320:0000000000332300
#0223b1:0000001300000000
#022381:0000000000332300
#0243a1:00000000000000001434343400343434
#024371:00000034
#0253a1:24
#025351:0000000000000013
#026351:0000002300000000
#026321:0000000000000013
#027321:0000002300000000
#028381:0013002300000000
#0293a1:0000000000000000000000000000000014545454240000000000000000000000
#029391:00000000000000000000000000000000000000000000000000000000000000000054005400540054000000000000000000000000000000000000000000000000
#029321:0000000000000000000000000000000000000000000000001454545424000000
#029331:00000000000000000000000000000000000000000000000000000000000000000000000000000000000000000000000000540054005400540000000000000000
#030381:1454545424000000000000000000000000000000000000000000000000000000
#030371:00540054005400540000000000000000000000000000000000000000000000000000000000000000000000000000000000000000000000000000000000000000
#030341:0000000000000000145454542400000000000000000000000000000000000000
#030351:00000000000000000000000000000000005400540054005400000000000000000000000000000000000000000000000000000000000000000000000000000000
#030381:0000000000000000000000000000000000000000000000001454545454542400
#030391:00000000000000000000000000000000000000000000000000000000000000000000000000000000000000000000000000540054005400540054005400000000
#0313a1:0000000000000000000000000000000014545454240000000000000000000000
#031391:00000000000000000000000000000000000000000000000000000000000000000054005400540054000000000000000000000000000000000000000000000000
#031321:0000000000000000000000000000000000000000000000001454545424000000
#031331:00000000000000000000000000000000000000000000000000000000000000000000000000000000000000000000000000540054005400540000000000000000
#0323a1:1454545424000000000000000000000000000000000000000000000000000000
#032391:00540054005400540000000000000000000000000000000000000000000000000000000000000000000000000000000000000000000000000000000000000000
#033381:0000000000000013
#034381:0000002300000000
#0343b1:0000000000000013
#0353b1:0000002300000000
#036351:0013002300000000
#037321:0000000000000000000000000000000014545454240000000000000000000000
#037331:00000000000000000000000000000000000000000000000000000000000000000054005400540054000000000000000000000000000000000000000000000000
#0373a1:0000000000000000000000000000000000000000000000001454545424000000
#037391:00000000000000000000000000000000000000000000000000000000000000000000000000000000000000000000000000540054005400540000000000000000
#038341:1454545424000000000000000000000000000000000000000000000000000000
#038351:00540054005400540000000000000000000000000000000000000000000000000000000000000000000000000000000000000000000000000000000000000000
#039321:1454545454545454240000000000000000000000000000000000000000000000
#039331:00540054005400540054005400540054000000000000000000000000000000000000000000000000000000000000000000000000000000000000000000000000
#0393a1:0000000000000000000000000000000014545454545454542400000000000000
#039391:00000000000000000000000000000000000000000000000000000000000000000054005400540054005400540054005400000000000000000000000000000000
#0433b1:1300002300000000
#043320:1300002300000000
#0473a0:0000140000003434
#047380:0054
#0483a0:24
#047321:0000140000003434
#047341:0054
#048321:24
#049351:0000001300000000
#049321:0000000000230000
#049321:0000000000000013
#050351:0023
#049380:0000000000000013
#0503b0:0023
#051380:0000001300000000
#0513b0:0000000000230000
#0513b0:0000000000000013
#052380:0023
#051351:0000000000000013
#052321:0023
#053351:0000001300000000
#053321:0000000000230000
#0533b0:0000001300000000
#053380:0000000000230000
#053320:0000000000000013
#054350:00230000
#053381:0000000000000013
#0543b1:00230000
#057321:0000000000000013
#058351:0023
#0593b1:0000000000000013
#060381:0023
#060341:0000000000140034
#060331:00000034
#061331:24
#061381:0000000000140034
#061391:00000034
#062391:24
#0633b1:0000001300000000
#064381:23
#063350:0000001300000000
#064320:23
