This file was generated by Ched 2.7.0.0.
#TITLE ""
#ARTIST ""
#DESIGNER ""
#DIFFICULTY 0
#PLAYLEVEL
#SONGID ""
#WAVE ""
#WAVEOFFSET 0
#JACKET ""
#REQUEST "ticks_per_beat 480"
#00002: 4
#BPM01: 160
#00008: 01
#TIL00: ""
#HISPEED 00
#MEASUREHS 00
#0161a:0000140000142400
#01612:1400001414000000
#01616:00001424
#0311b:0013000000130000
#03112:0000130000000013
#03116:0013001300001300
#03117:00131300
#0311a:00000000000000130000000000000000
#03214:0013
#0321a:0000001300000000
#03212:00000013
#03217:13000013
#03219:0013
#03216:0000130000000013
#0321b:0013130000000000
#03213:0000000000130000
#02512:0000001200000012
#02514:00001212
#02516:2300000000120000
#02518:00001212
#0251a:0000000000000012
#0251b:13
#02517:00000013000000000000000000000000
#02510:41
#02616:1300001200120000
#02614:00001212
#02612:0000000000000012
#02618:0012
#0261b:13
#02617:00000013000000000000000000000000
#02712:0000001200000000
#02718:00001212
#02716:13000013000000000000120000000000
#0271a:0000000000000012
#02714:00001212
#0271b:13
#02816:00000013000012000000120000000000
#02818:0012
#02812:00000012
#0281c:00000012
#02814:0012
#0281b:13
#02917:0000130000130000
#02912:00130000
#0291b:0013
#02915:0000001300000000
#02918:00000000000000130000000000000000
#02914:0000000000000013
#02913:24
#02919:24
#03712:00130000
#0371b:0000001300000000
#03717:0000001300000000
#03716:00130000
#03713:24
#03719:24
#04317:1300000000000000001300000000000000000000000000001300000000000000
#04316:0000000000130013
#0431b:0000001300000000000000000000000000000000000000001300000000000000
#04312:1300001300130013
#04319:00000013000000000000000000000000
#04718:0000130000131313
#04715:00000000130000000000001300130013
#04716:14
#04812:1500000000000013
#04819:150000000000001300130000
#0481b:0013
#04816:000000000000000000000000001300000000000000000000
#04814:000000000000000000000000000000130000001300000000
#04817:000000000013
#00013:0000000000120000
#00019:00000012
#00016:0000000000000012
#0011c:1200001200000000
#00112:0000120000120000
#00118:0000120012000012
#00116:1200001200001200
#00212:00120000
#0021c:00120000000000000000000000000000
#0021b:0000000000120000
#00215:00000012
#00218:0000000000000012
#0091b:1300001300000000
#00919:0000130000130000
#00917:0000000000000013
#00910:41
#00812:1300000000130000
#00815:00000013
#00818:0000000000000013
#0081b:13
#0101b:33003313330033000000130000000000
#01015:0000000000000013
#01018:00000013
#01012:0013
#0131a:1400001400000000
#01317:0000000000130000
#01319:0000000000000013
#01318:00000013
#01312:0013001300130013
#01313:23132313
#01316:00000014000000000000000000000000
#06812:00000014140014001400000000001300
#0681b:0000000000000013
#06813:13
#06816:00000014
#0681c:3200323200000000
#00619:0000001200000000
#00615:0000001200000000
#00612:00120000
#00618:00120000000000000000000000000000
#0071c:1200000000000012
#0071a:0012000000001200
#00718:0000120000120000
#00716:1200000000000012
#00714:0012000000001200
#00712:0000120000120000
#0181b:0000131300000000
#01817:13000000000013000013000000000000
#01812:1300000000130000
#01816:00000013
#0181a:00000000000000330000003300000000
#01818:0000000000330000
#01819:0033
#02112:1c00001300001300
#0211b:0000130013000013
#02116:00130000
#02117:00000013
#02418:260016001600000000000000000013000000001300000000
#02412:000000000000260016001600000000130000130000000000
#0241b:0000000013000013
#02415:000000000000000000000000001300000000000013000000
#04916:2300001313000000
#04912:00131313
#0491b:2300001300130000
#04917:0000130000001313
#0491f:21
#06112:00000013000000000000000000000000
#06116:00000014000014000000000000000000
#0611b:0000001300000000
#06314:00000013000000000000000000000000
#06319:00000013000000000000000000000000
#05416:00140000000014001300000000000000
#05412:00141300
#03917:0013000000000000
#03912:13130000
#03915:0000001600000016
#03916:0000000000130000
#0391b:00001313
#05117:1300001313000000
#05112:1300001300130000
#0511b:00131313
#05116:0000130000001313
#05110:41
#05518:16000000260000000000000000160000
#05514:00001600000000000000001600000000
#05516:00160000000000000000000016000000
#05512:00000016000000000000160000002600
#05513:0013
#0551a:0013
#04117:00000012000000000000000000000000
#04118:0000000000000012
#04116:00000000000000001200001200000000
#04119:0000001200000000
#04112:2300001300000000
#0411c:0012
#0411f:11
#04217:00000012000000000000000000000000
#04219:0000001200000012
#0421c:1212
#04215:0012
#04212:1300001300000000
#04216:00000000000000000000001200000000
#0441b:1300000013000013
#04415:000000000000000000000000001300000000000013000000
#04418:000000130000000000000000000013000000001300000000
#04412:1313130000131300
#00312:1200001200000000
#0031c:0000120000120000
#00316:0000120012000012
#00318:1200001200001200
#0041c:00120000
#00412:00120000000000000000000000000000
#00413:0000000000120000
#00419:00000012
#00416:0000000000000012
#0051c:1200000012000012
#00512:00120012
#00516:1200001200120000
#00518:0000121200000000
#01515:00130000000000000013000000000000
#01519:0013000000130000
#01512:23000013000000002300001300000000
#01516:00130013
#0151b:23000000001300002300000000130000
#01514:0000001300000013
#01518:00000000000000130000000000000013
#01412:1400001400000000
#01417:0000000000130000
#01414:0000000000000013
#01415:00000013
#0141b:0013001300130013
#0141a:23132313
#01416:00000014000000000000000000000000
#02012:0000140000142400
#02016:13141424
#0201a:0000001414000000
#0201b:13
#0331c:0000001200000012
#0331a:00001212
#03318:0000000000120000
#03316:00000013000000001200000012000000
#03314:0000000000000012
#03312:13
#03317:23
#03310:41
#03418:0000001200120000
#0341a:00001212
#0341c:0000000000000012
#03416:00000013000000001200000000000000
#03412:13
#03417:13
#0351c:0000001200000000
#03516:00001212
#03518:0000000000120000
#03514:0000000000000012
#0351a:00001212
#03512:13
#03517:13000013000000000000000000000000
#03618:0000001200120000
#03616:0012
#0361c:00000012
#03612:13000012
#0361a:0012
#03617:00000013000000000000000000000000
#0401b:13
#04010:41
#0501b:1300000000130013
#05017:00001313
#05015:00130000000000000000000000000000
#0501a:0013000000000000
#05019:00130000
#05018:0000001300000000
#05014:00000013000000000000000000000000
#05013:00000000001300000000000000000000
#05012:00000000000000130000000000000000
#0531a:0000000000000014
#05316:13
#0531b:1313
#05318:0000001300000000
#05312:0000131300001300
#05317:00130000
#05314:0013
#05315:0000000000130000
#05319:00000013
#05617:1300000000131300
#0561b:001300000000000000000000000000000000000000000000
#05616:000013000000001300000000000000000000000013000000
#0561a:0013130000000000
#05619:001300
#05615:0000001300000000
#05614:0013
#05618:000000000000000000000000001300000000000000000000
#05613:000000000000000000000000000013000000001300000000
#05612:0000000000000013
#05816:0000000000130000
#05812:00000013000000130000000013000000
#0581b:1300130013130013
#0641a:0000001400000000
#06412:0000260000142600
#06416:0000001400140000
#06418:00242626
#06414:0024
#06517:1300000000000013
#06519:00000013130000001300000000000000
#06516:0000001300000000
#0651a:00000000000000000000001313000000
#06512:2200323232003232
#0661a:1300000014141400
#0661b:00000013130000000000000000000000
#06618:0000001300000000
#06612:3200323232320000
#01112:1300001300000000
#01114:0000130000130000
#01116:0000000000000013
#01212:33003313330033000000130000000000
#01218:0000000000000013
#01215:00000013
#0121b:00001313
#0171b:0000130013000013
#01717:0000000000000013
#01712:1c00001300001300
#01716:0000131313000000
#01710:41
#01912:1c00130013000013
#01916:0000000000000013
#0191b:0000001300001300
#01917:0000131313000000
#02212:1300131300000000
#0221b:0000000000130000
#02217:00130013
#02216:00000000000013000013000000000000
#02213:00000000000000330000003300000000
#02215:0000000000330000
#02214:0033
#02312:1c130000
#02317:0000130013000013
#02316:0000001300001300
#0231b:00000013
#03019:0013000000000000
#03016:0000001300140000
#03012:0013
#03812:00130000
#03816:0000000000000013
#04512:1300000000130000
#0451b:0013000013000000
#04516:00000013000000002300000000000000
#04519:00130000
#04513:0000001300000000
#04517:23000000000000000000001300000000
#04514:00000013
#0451a:0000000000000013
#04612:1300001300130000
#0461b:0013000013000013
#04614:00000013000000000000000000000000
#04618:00130000
#04617:2300001300000000
#04619:00000000000000000000001300000000
#04615:00000013
#04616:0000000023000013
#05212:1300000000130013
#05218:00130000000000000000000000000000
#05213:0013000000000000
#05214:00130000
#05215:0000001300000000
#05216:00001313
#05219:00000013000000000000000000000000
#0521a:00000000001300000000000000000000
#0521b:00000000000000130000000000000000
#05712:00131300
#05717:0000130000000013
#05716:2300001300000000
#05718:0000000000130000
#0571b:23
#06012:13131300
#0601b:00000013000000130000000000000000
#0591b:00131300
#05916:0000130000000013
#05917:2300001300000000
#05915:0000000000130000
#05912:23
#05912:23
#0621b:00000013000000000000000000000000
#06216:00000014000014000000000000000000
#06212:0000001300000000
#06716:1300000000000013
#06714:00000013130000001300000000000000
#06717:0000001300000000
#06713:00000000000000000000001313000000
#0671c:2200323232003232
#06916:14
#04357:5300000000000000002300000000000000000000000000000000000000000000
#04359:00000053000000000000000000000000
#0435b:0000002300000000000000000000000000000000000000000000000000000000
#04758:00530000
#04755:00630000
#00158:0000000022000052
#0015c:0000006200000000
#00152:0000000000520000
#00156:00000022
#0025c:00220000000000000000000000000000
#0135a:1400001400000000
#00852:53
#0085b:63
#00752:00120000
#0075c:0000000000000012
#0185b:0000005300000000
#01857:00000000000000000023000000000000
#01852:53
#04956:1300005300000000
#0495b:1300000000530000
#04952:0023
#04957:00000023
#05157:1300006300000000
#05152:1300000000630000
#0515b:0023
#05156:00000023
#05456:00240000000000005300000000000000
#05452:0063
#06458:00443646
#06452:00460036
#06454:0034
#00352:0000005200000000
#00356:0000000022000062
#0035c:0000000000620000
#00358:00000022
#00452:00220000000000000000000000000000
#00556:0000000000620000
#0055c:0000000022000062
#00552:00000022
#00558:0000005200000000
#00658:00220000000000000000000000000000
#01452:1400001400000000
#0165a:00340034
#01656:00344434
#01652:6444
#02052:00440044
#02056:00443444
#0205a:0034
#03156:00000033
#03157:0043
#03257:43
#04052:00330033
#0405b:4343
#04156:00000000000000000000005200000000
#0415c:0052
#0425c:0052
#04256:00000000000000000000005200000000
#04852:35
#04859:45
#0535a:0000000000000054
#0535b:4323
#05358:0000006300000000
#05355:0000000000530000
#05352:00000023
#05356:13
#05558:00460000
#05552:0000000000000036
#05756:33
#0575b:43
#05752:0023
#05758:0000000000630000
#0585b:0000000000630063
#05852:00000063
#0255b:53
#02557:00000023000000000000000000000000
#0265b:53
#02657:00000023000000000000000000000000
#0275b:53
#02756:00000023000000000000000000000000
#0285b:53
#02856:00000023000000000000000000000000
#03352:63
#03356:00000023000000000000000000000000
#03452:63
#03456:00000023000000000000000000000000
#03552:63
#03557:00000023000000000000000000000000
#03652:63
#03657:00000023000000000000000000000000
#06557:13
#06552:22
#0665a:00000044
#00957:0000000000000053
#0105b:00000023000000000000000000000000
#01156:0000000000000063
#01252:00000023000000000000000000000000
#0175b:0063
#01952:0053
#02152:0000005300002300
#0215b:0000230000000063
#02357:00230000
#02356:0000006300002300
#02252:0000006300000000
#02256:00000000000000000023000000000000
#0305b:00000000000000000000000000000043
#03052:00000000000000000000000000000033
#0445b:53
#04458:0023000000000000
#04552:13
#0455b:0013
#04652:33
#0465b:0043
#05952:33
#05952:33
#05957:43
#0595b:0023
#05955:0000000000530000
#06156:33
#0615b:0000004300000000
#06252:0000003300000000
#06257:43
#0635b:43
#06352:33
#0675c:22
#06756:13
#0013c0:0000001200220000
#001380:0052
#001321:0000000000120022
#001361:00000052
#001380:0000000000000012
#0023c0:00520000000000000000000000000000
#002380:00220000
#003320:0000001200220000
#003360:0052
#0033c1:0000000000120022
#003381:00000052
#003360:0000000000000012
#004320:00520000000000000000000000000000
#004360:00220000
#005380:0000001200220000
#0053c0:0052
#005361:0000000000120022
#005321:00000052
#0053c0:0000000000000012
#006380:00520000000000000000000000000000
#0063c0:00220000
#006330:00001222
#0063b1:00001222
#008321:13
#0083b1:0023
#0083b0:13
#008320:0023
#009360:13
#009320:0023000000000000
#009360:0000132300000000
#009320:0013
#009360:0000000000230000
#009320:0000000000001323
#009371:0000000000000013
#0103b1:33003353330033000000000000000000
#010371:0023
#010360:13
#010320:0023000000000000
#010350:0000132300000000
#011371:13
#0113b1:0023000000000000
#011371:0000132300000000
#0113b1:0013
#011371:0000000000230000
#0113b1:0000000000001323
#011360:0000000000000013
#012320:33003353330033000000000000000000
#012360:0023
#012371:13
#0123b1:0023000000000000
#012381:0000132300000000
#016320:14
#016360:00240000
#0173b0:0013
#017370:00000023
#018320:13
#018360:00230000
#0183b0:0000001300002300
#0183a0:00000000000000330000003300000000
#018390:0033
#018370:00000000000000000033000000000000
#018380:0000000000330000
#019320:0013
#019360:00000023
#0213b0:00130000
#021370:0000002300000000
#021321:0000001300000000
#021361:0023
#021321:00000013
#021361:0000000000000023
#0213b0:0000000000000013
#022370:23
#022320:0000001300002300
#022330:00000000000000330000003300000000
#022340:0033
#022360:00000000000000000033000000000000
#022350:0000000000330000
#023370:00130000
#0233b0:0000002300000000
#023361:0000001300000000
#023321:0023
#023361:00000013
#023321:0000000000000023
#0253b1:1300002300000000
#025371:00000053000000000000000000000000
#0263b1:1300002300000000
#026371:00000053000000000000000000000000
#0273b1:1300002300000000
#027361:00000053000000000000000000000000
#027321:0000000000000012
#028321:0022000000000000
#0283b0:1300002300000000
#028360:00000053000000000000000000000000
#029360:000000000000000000000000000000000000000000000000135300000000000000000053230000000000000000000000
#029350:000000000000000000000000000000000000000000000000000000000000000000000000000000000000000000000000005300005300530000000000000000000000530053000053000000000000000000000000000000000000000000000000
#029340:000000000000000000000000000000000000000000000000000000000000000000000000000000000000000000000000000000530053000053005300000053005300005300530000000000000000000000000000000000000000000000000000
#029330:000000000000000000000000000000000000000000000000000000000000000000000000000000000000000000000000000000000000005300530000530000530053000000000000000000000000000000000000000000000000000000000000
#029320:000000000000000000000000000000000000000000000000000000000000000000000000000000000000000000000000000000000000000000000053005300000000000000000000000000000000000000000000000000000000000000000000
#0293b1:000000000000000000000000000000000000000000000000000000000000000000000000135300000000000000000053
#0293a1:000000000000000000000000000000000000000000000000000000000000000000000000000000000000000000000000000000000000000000000000000000000000000000000000005300005300530000000000000000000000530053000053
#029391:000000000000000000000000000000000000000000000000000000000000000000000000000000000000000000000000000000000000000000000000000000000000000000000000000000530053000053005300000053005300005300530000
#029381:000000000000000000000000000000000000000000000000000000000000000000000000000000000000000000000000000000000000000000000000000000000000000000000000000000000000005300530000530000530053000000000000
#029371:000000000000000000000000000000000000000000000000000000000000000000000000000000000000000000000000000000000000000000000000000000000000000000000000000000000000000000000053005300000000000000000000
#0303b1:23
#030320:135300000000000000000053230000000000000000000000000000000000000000000000000000000000000000000000
#030330:005300005300530000000000000000000000530053000053000000000000000000000000000000000000000000000000000000000000000000000000000000000000000000000000000000000000000000000000000000000000000000000000
#030340:000000530053000053005300000053005300005300530000000000000000000000000000000000000000000000000000000000000000000000000000000000000000000000000000000000000000000000000000000000000000000000000000
#030350:000000000000005300530000530000530053000000000000000000000000000000000000000000000000000000000000000000000000000000000000000000000000000000000000000000000000000000000000000000000000000000000000
#030360:000000000000000000000053005300000000000000000000000000000000000000000000000000000000000000000000000000000000000000000000000000000000000000000000000000000000000000000000000000000000000000000000
#030371:000000000000000000000000135300000000000000000053230000000000000000000000000000000000000000000000
#030381:000000000000000000000000000000000000000000000000005300005300530000000000000000000000530053000053000000000000000000000000000000000000000000000000000000000000000000000000000000000000000000000000
#030391:000000000000000000000000000000000000000000000000000000530053000053005300000053005300005300530000000000000000000000000000000000000000000000000000000000000000000000000000000000000000000000000000
#0303a1:000000000000000000000000000000000000000000000000000000000000005300530000530000530053000000000000000000000000000000000000000000000000000000000000000000000000000000000000000000000000000000000000
#0303b1:000000000000000000000000000000000000000000000000000000000000000000000053005300000000000000000000000000000000000000000000000000000000000000000000000000000000000000000000000000000000000000000000
#0303b1:00000000000000000000000000000000000000000000000000000000000000000000000000000000000000000000000013530000000000000000005323000000
#0303a1:0000000000000000000000000000000000000000000000000000000000000000000000000000000000000000000000000000000000000000000000000000000000000000000000000000000000000000000000000000000000000000000000000053000053005300000000000000000000005300530000530000000000000000
#030391:0000000000000000000000000000000000000000000000000000000000000000000000000000000000000000000000000000000000000000000000000000000000000000000000000000000000000000000000000000000000000000000000000000005300530000530053000000530053000053005300000000000000000000
#030381:0000000000000000000000000000000000000000000000000000000000000000000000000000000000000000000000000000000000000000000000000000000000000000000000000000000000000000000000000000000000000000000000000000000000000053005300005300005300530000000000000000000000000000
#030371:000000000000000000000000000000000000000000000000000000000000000000000000000000000000000000000000000000000000000000000000000000000000000000000000000000000000000000000000000000000000000000000000000000000000000000000000000000000000000000000000000000000000000000000000000000000000000000000000000000000000000000000000000000000000000000000000000000000000000000000000000000000000000000000000000000000000000000000000000000000000000000000000000000000000000000000000000000000000000000000000000000000000000000000000000000000000000000000000000000000000000000000000000000000000000000000000000000000000000000000000000000000000000000000000000000000000000000000000000000000000000000000000000000000000000000000000000000000000000000000000000000000000000000000000000000000000000000000000000000000000000000000000000000000000000000000000000000000000000000000000000000000000000000000000000000000000000000000000000000000000000000000000000000000000000000000000000000000000000000000000000000000000000000000000000000000000000000000000000000000000000000000000000000000000000000000000000000000000000000000000000000000000000000000000000000000000000000000000000000000000000000000000000000000000000000000000000000000000000000000000000000000000000000000000000000000000000000000000000000000000000000000000000000000000000000000000000000000000000000000000000000000000000000000000000000000000000000000000000000000000000000000000000000000000000000000000000000000000000000000000000000000000000000000000000000000000000000000000000000000000000000000000000000000000000000000000000000000000000000000000000000000000000000000000000000000000000000000053000000000000000000000000005300000000000000000000000000000000000000000000000000000000000000000000000000000000000000000000000000000000000000000000000000000000000000000000000000000000000000000000000000000000000000000000000000000000000000000000000000000000000000000000000000000000000000000000000000000000000000000000
#030320:00000000000000000000000000000000000000000000000000000000000000000000000000000000000000000000000013530000000000000000005323000000
#030330:0000000000000000000000000000000000000000000000000000000000000000000000000000000000000000000000000000000000000000000000000000000000000000000000000000000000000000000000000000000000000000000000000053000053005300000000000000000000005300530000530000000000000000
#030340:0000000000000000000000000000000000000000000000000000000000000000000000000000000000000000000000000000000000000000000000000000000000000000000000000000000000000000000000000000000000000000000000000000005300530000530053000000530053000053005300000000000000000000
#030350:0000000000000000000000000000000000000000000000000000000000000000000000000000000000000000000000000000000000000000000000000000000000000000000000000000000000000000000000000000000000000000000000000000000000000053005300005300005300530000000000000000000000000000
#030360:0000000000000000000000000000000000000000000000000000000000000000000000000000000000000000000000000000000000000000000000000000000000000000000000000000000000000000000000000000000000000000000000000000000000000000000000530053000000000000000000000000000000000000
#031320:000000000000000000000000000000000000000000000000135300000000000000000000000000000000000000000000
#031330:000000000000000000000000000000000000000000000000000000000000000000000000000000000000000000000000005300005300530000000000000000000000000000000000000000000000000000000000000000000000000000000000
#031340:000000000000000000000000000000000000000000000000000000000000000000000000000000000000000000000000000000530053000053000000000000000000000000000000000000000000000000000000000000000000000000000000
#031350:000000000000000000000000000000000000000000000000000000000000000000000000000000000000000000000000000000000000005300005300000000000000000000000000000000000000000000000000000000000000000000000000
#031360:0000000000000000000000000000000000000053230000000000000000000000
#031370:000000000000000000000000000000000000000000000000000000000000000000000000000000000000000000000000000000000000000000000053000000000000000000000000000000000000000000000000000000000000000000000000
#0313b0:000000000000000000000000000000000000000000000000000000000000000000000000135300000000000000000000
#0313a0:000000000000000000000000000000000000000000000000000000000000000000000000000000000000000000000000000000000000000000000000000000000000000000000000005300005300000000000000000000000000000000000000
#031390:0000000000000000000000000000000000000000000000000053530000000000
#031380:000000000000000000000000000000000000000000000000000000000000000000000000000000000000000000000000000000000000000000000000000000000000000000000000000000000053000053000000000000000000000000000000
#031370:000000000000000000000000000000000000000000000000000000000000000000000000000000000000000000000000000000000000000000000000000000000000000000000000000000000000005300005300000000000000000000000000
#031360:0000000000000000000000000000000000000000000000000000005323000000
#031350:000000000000000000000000000000000000000000000000000000000000000000000000000000000000000000000000000000000000000000000000000000000000000000000000000000000000000000000053000000000000000000000000
#032320:135300000000000000000000000000000000000000000000000000000000000000000000000000000000000000000000
#032330:005300005300000000000000000000000000000000000000000000000000000000000000000000000000000000000000000000000000000000000000000000000000000000000000000000000000000000000000000000000000000000000000
#032340:0053530000000000000000000000000000000000000000000000000000000000
#032350:000000000053000053000000000000000000000000000000000000000000000000000000000000000000000000000000000000000000000000000000000000000000000000000000000000000000000000000000000000000000000000000000
#032360:000000000000005300005300000000000000000000000000000000000000000000000000000000000000000000000000000000000000000000000000000000000000000000000000000000000000000000000000000000000000000000000000
#032370:0000005323000000000000000000000000000000000000000000000000000000
#032380:000000000000000000000053000000000000000000000000000000000000000000000000000000000000000000000000000000000000000000000000000000000000000000000000000000000000000000000000000000000000000000000000
#033320:1300002300000000
#033360:00000053000000000000000000000000
#034320:1300002300000000
#034360:00000053000000000000000000000000
#035320:1300002300000000
#035370:00000053000000000000000000000000
#0353c0:0000000000000012
#0363c0:0022000000000000
#036321:1300002300000000
#036371:00000053000000000000000000000000
#037321:00000000000000000000000000000000000000000000000000000000000000001353000000000000000000000000000000000000000000000000000000000000
#037331:0000000000000000000000000000000000000000000000000000000000000000000000000000000000000000000000000000000000000000000000000000000000530000530000000000000000000000000000000000000000000000000000000000000000000000000000000000000000000000000000000000000000000000
#037341:0000000000000000000000000000000000000000000000000000000000000000000000000000000000000000000000000000000000000000000000000000000000000053000053005300000000000000000000000000000000000000000000000000000000000000000000000000000000000000000000000000000000000000
#037351:0000000000000000000000000000000000000000000000000000000000000000000000000000000000000000000000000000000000000000000000000000000000000000005300530000530053000000000000000000000000000000000000000000000000000000000000000000000000000000000000000000000000000000
#037361:0000000000000000000000000000000000000000000000000000000000000000000000000000000000000000000000000000000000000000000000000000000000000000000000000053005300005300230000000000000000000000000000000000000000000000000000000000000000000000000000000000000000000000
#037371:0000000000000000000000000000000000000000000000000000000000000000000000000000000000000000000000000000000000000000000000000000000000000000000000000000000000530053000000000000000000000000000000000000000000000000000000000000000000000000000000000000000000000000
#0373b0:00000000000000000000000000000000000000000000000000000000000000001353535353535353230000000000000000000000000000000000000000000000
#0373a0:0000000000000000000000000000000000000000000000000000000000000000000000000000000000000000000000000000000000000000000000000000000000530053005300530053005300530053000000000000000000000000000000000000000000000000000000000000000000000000000000000000000000000000
#0373b0:00000000000000000000000000000000000000000000000000000000000000000000000000000000000000000000000013530000000000000000000000000000
#0373a0:0000000000000000000000000000000000000000000000000000000000000000000000000000000000000000000000000000000000000000000000000000000000000000000000000000000000000000000000000000000000000000000000000053000053000000000000000000000000000000000000000000000000000000
#037390:0000000000000000000000000000000000000000000000000000000000000000000000000000000000000000000000000000000000000000000000000000000000000000000000000000000000000000000000000000000000000000000000000000005300005300530000000000000000000000000000000000000000000000
#037380:0000000000000000000000000000000000000000000000000000000000000000000000000000000000000000000000000000000000000000000000000000000000000000000000000000000000000000000000000000000000000000000000000000000000530053000053005300000000000000000000000000000000000000
#037370:0000000000000000000000000000000000000000000000000000000000000000000000000000000000000000000000000000000000000000000000000000000000000000000000000000000000000000000000000000000000000000000000000000000000000000005300530000530023000000000000000000000000000000
#037360:0000000000000000000000000000000000000000000000000000000000000000000000000000000000000000000000000000000000000000000000000000000000000000000000000000000000000000000000000000000000000000000000000000000000000000000000000053005300000000000000000000000000000000
#037321:00000000000000000000000000000000000000000000000000000000000000000000000000000000000000000000000013535353535353532300000000000000
#037331:0000000000000000000000000000000000000000000000000000000000000000000000000000000000000000000000000000000000000000000000000000000000000000000000000000000000000000000000000000000000000000000000000053005300530053005300530053005300000000000000000000000000000000
#038321:13530000000000000000000000000000000000000000000000000000000000000000000000000000000000000000000000000000000000000000000000000000
#038331:0053000053000000000000000000000000000000000000000000000000000000000000000000000000000000000000000000000000000000000000000000000000000000000000000000000000000000000000000000000000000000000000000000000000000000000000000000000000000000000000000000000000000000
#038341:0000005300005300530000000000000000000000000000000000000000000000000000000000000000000000000000000000000000000000000000000000000000000000000000000000000000000000000000000000000000000000000000000000000000000000000000000000000000000000000000000000000000000000
#038351:0000000000530053000053005300000000000000000000000000000000000000000000000000000000000000000000000000000000000000000000000000000000000000000000000000000000000000000000000000000000000000000000000000000000000000000000000000000000000000000000000000000000000000
#038361:0000000000000000005300530000530023000000000000000000000000000000000000000000000000000000000000000000000000000000000000000000000000000000000000000000000000000000000000000000000000000000000000000000000000000000000000000000000000000000000000000000000000000000
#038371:0000000000000000000000000053005300000000000000000000000000000000000000000000000000000000000000000000000000000000000000000000000000000000000000000000000000000000000000000000000000000000000000000000000000000000000000000000000000000000000000000000000000000000
#0383b0:13535353535353532300000000000000000000000000000000000000000000000000000000000000000000000000000000000000000000000000000000000000
#0383a0:0053005300530053005300530053005300000000000000000000000000000000000000000000000000000000000000000000000000000000000000000000000000000000000000000000000000000000000000000000000000000000000000000000000000000000000000000000000000000000000000000000000000000000
#038370:0000000000000000000000000000000000000000000000000000000000000000130000530053000000000000000000000000000000000000000000000000000000000000000000000000000000000000000000000000000000000000000000000000000000000000000000000000000000000000000000000000000000000000
#038360:0000000000000000000000000000000000000000000000000000000000000000005300000000000000000000000000000000000000000000000000000000000000000000000000000000000000000000000000000000000000000000000000000000000000000000000000000000000000000000000000000000000000000000
#038380:0000000000000000000000000000000000000000000000000000000000000000000053005300005300530000000000000000000000000000000000000000000000000000000000000000000000000000000000000000000000000000000000000000000000000000000000000000000000000000000000000000000000000000
#038390:0000000000000000000000000000000000000000000000000000000000000000000000000000530053000053005300000000000000000000000000000000000000000000000000000000000000000000000000000000000000000000000000000000000000000000000000000000000000000000000000000000000000000000
#0383a0:0000000000000000000000000000000000000000000000000000000000000000000000000000000000005300530000530000000000000000000000000000000000000000000000000000000000000000000000000000000000000000000000000000000000000000000000000000000000000000000000000000000000000000
#0383b0:00000000000000000000000000000000000000000000005323000000000000000000000000000000000000000000000000000000000000000000000000000000
#038361:0000000000000000000000000000000000000000000000000000000000000000000000000000000000000000000000001300005300530000000000000000000000000000000000000000000000000000000000000000000000000000000000000000000000000000000000000000000000000000000000000000000000000000
#038371:0000000000000000000000000000000000000000000000000000000000000000000000000000000000000000000000000053000000000000000000000000000000000000000000000000000000000000000000000000000000000000000000000000000000000000000000000000000000000000000000000000000000000000
#038351:0000000000000000000000000000000000000000000000000000000000000000000000000000000000000000000000000000530053000053005300000000000000000000000000000000000000000000000000000000000000000000000000000000000000000000000000000000000000000000000000000000000000000000
#038341:0000000000000000000000000000000000000000000000000000000000000000000000000000000000000000000000000000000000005300530000530053000000000000000000000000000000000000000000000000000000000000000000000000000000000000000000000000000000000000000000000000000000000000
#038331:0000000000000000000000000000000000000000000000000000000000000000000000000000000000000000000000000000000000000000000053005300005300000000000000000000000000000000000000000000000000000000000000000000000000000000000000000000000000000000000000000000000000000000
#038321:00000000000000000000000000000000000000000000000000000000000000532300000000000000000000000000000000000000000000000000000000000000
#038370:0000000000000000000000000000000000000000000000000000000000000000000000000000000000000000000000000000000000000000000000000000000013000053005300000000000000000000000000000000000000000000000000000000000000000000000000000000000000000000000000000000000000000000
#038360:0000000000000000000000000000000000000000000000000000000000000000000000000000000000000000000000000000000000000000000000000000000000530000000000000000000000000000000000000000000000000000000000000000000000000000000000000000000000000000000000000000000000000000
#038380:0000000000000000000000000000000000000000000000000000000000000000000000000000000000000000000000000000000000000000000000000000000000005300530000530053000000000000000000000000000000000000000000000000000000000000000000000000000000000000000000000000000000000000
#038390:0000000000000000000000000000000000000000000000000000000000000000000000000000000000000000000000000000000000000000000000000000000000000000000053005300005300530000000000000000000000000000000000000000000000000000000000000000000000000000000000000000000000000000
#0383a0:0000000000000000000000000000000000000000000000000000000000000000000000000000000000000000000000000000000000000000000000000000000000000000000000000000530053000053000000000000000000000000000000000000000000000000000000000000000000000000000000000000000000000000
#0383b0:00000000000000000000000000000000000000000000000000000000000000000000000000000053230000000000000000000000000000000000000000000000
#038361:0000000000000000000000000000000000000000000000000000000000000000000000000000000000000000000000000000000000000000000000000000000000000000000000000000000000000000130000530053000000000000000000000000000000000000000000000000000000000000000000000000000000000000
#038371:0000000000000000000000000000000000000000000000000000000000000000000000000000000000000000000000000000000000000000000000000000000000000000000000000000000000000000005300000000000000000000000000000000000000000000000000000000000000000000000000000000000000000000
#038351:0000000000000000000000000000000000000000000000000000000000000000000000000000000000000000000000000000000000000000000000000000000000000000000000000000000000000000000053005300005300530000000000000000000000000000000000000000000000000000000000000000000000000000
#038341:0000000000000000000000000000000000000000000000000000000000000000000000000000000000000000000000000000000000000000000000000000000000000000000000000000000000000000000000000000530053000053005300000000000000000000000000000000000000000000000000000000000000000000
#038331:0000000000000000000000000000000000000000000000000000000000000000000000000000000000000000000000000000000000000000000000000000000000000000000000000000000000000000000000000000000000005300530000530000000000000000000000000000000000000000000000000000000000000000
#038321:00000000000000000000000000000000000000000000000000000000000000000000000000000000000000000000005323000000000000000000000000000000
#038370:0000000000000000000000000000000000000000000000000000000000000000000000000000000000000000000000000000000000000000000000000000000000000000000000000000000000000000000000000000000000000000000000001300005300530000000000000000000000000000000000000000000000000000
#038360:0000000000000000000000000000000000000000000000000000000000000000000000000000000000000000000000000000000000000000000000000000000000000000000000000000000000000000000000000000000000000000000000000053000000000000000000000000000000000000000000000000000000000000
#038380:0000000000000000000000000000000000000000000000000000000000000000000000000000000000000000000000000000000000000000000000000000000000000000000000000000000000000000000000000000000000000000000000000000530053000053005300000000000000000000000000000000000000000000
#038390:0000000000000000000000000000000000000000000000000000000000000000000000000000000000000000000000000000000000000000000000000000000000000000000000000000000000000000000000000000000000000000000000000000000000005300530000530053000000000000000000000000000000000000
#0383a0:0000000000000000000000000000000000000000000000000000000000000000000000000000000000000000000000000000000000000000000000000000000000000000000000000000000000000000000000000000000000000000000000000000000000000000000053005300005300000000000000000000000000000000
#0383b0:00000000000000000000000000000000000000000000000000000000000000000000000000000000000000000000000000000000000000532300000000000000
#039370:135300000000000000000053230000000000000000000000000000000000000000000000000000000000000000000000
#039380:005300005300530000000000000000000000530053000053000000000000000000000000000000000000000000000000000000000000000000000000000000000000000000000000000000000000000000000000000000000000000000000000
#039390:000000530053000053005300000053005300005300530000000000000000000000000000000000000000000000000000000000000000000000000000000000000000000000000000000000000000000000000000000000000000000000000000
#0393a0:000000000000005300530000530000530053000000000000000000000000000000000000000000000000000000000000000000000000000000000000000000000000000000000000000000000000000000000000000000000000000000000000
#0393b0:000000000000000000000053005300000000000000000000000000000000000000000000000000000000000000000000000000000000000000000000000000000000000000000000000000000000000000000000000000000000000000000000
#039360:000000000000000000000000000000000000000000000000135300000000000000000053230000000000000000000000
#039350:000000000000000000000000000000000000000000000000000000000000000000000000000000000000000000000000005300005300530000000000000000000000530053000053000000000000000000000000000000000000000000000000
#039340:000000000000000000000000000000000000000000000000000000000000000000000000000000000000000000000000000000530053000053005300000053005300005300530000000000000000000000000000000000000000000000000000
#039330:000000000000000000000000000000000000000000000000000000000000000000000000000000000000000000000000000000000000005300530000530000530053000000000000000000000000000000000000000000000000000000000000
#039320:000000000000000000000000000000000000000000000000000000000000000000000000000000000000000000000000000000000000000000000053005300000000000000000000000000000000000000000000000000000000000000000000
#040320:13230000
#040340:0053000053005300000000000000000000000000000000000000530053000053000000000000000000000000000000000000000000000000000000000000000000000000000000000000000000000000000000000000000000000000000000000000000000000000000000000000000000000000000000000000000000000000
#040330:00530000000000000000000000000053000000000000000000000000000000000000000000000000000000000000000000000000000000000000000000000000
#040350:0000005300530000330053000000000000000000000053003300005300530000000000000000000000000000000000000000000000000000000000000000000000000000000000000000000000000000000000000000000000000000000000000000000000000000000000000000000000000000000000000000000000000000
#040360:0000000000000053005300005300530000005300530000530053000000000000000000000000000000000000000000000000000000000000000000000000000000000000000000000000000000000000000000000000000000000000000000000000000000000000000000000000000000000000000000000000000000000000
#040370:0000000000000000000000530053000033000053005300000000000000000000000000000000000000000000000000000000000000000000000000000000000000000000000000000000000000000000000000000000000000000000000000000000000000000000000000000000000000000000000000000000000000000000
#040380:0000000000000000000000000000005300530000000000000000000000000000000000000000000000000000000000000000000000000000000000000000000000000000000000000000000000000000000000000000000000000000000000000000000000000000000000000000000000000000000000000000000000000000
#0403b1:00132300
#040391:0000000000000000000000000000000000000000000000000000000000000000005300005300530000000000000000000000000000000000000053005300005300000000000000000000000000000000000000000000000000000000000000000000000000000000000000000000000000000000000000000000000000000000
#0403a1:00000000000000000000000000000000005300000000000000000000000000530000000000000000000000000000000000000000000000000000000000000000
#040381:0000000000000000000000000000000000000000000000000000000000000000000000530053000033005300000000000000000000005300330000530053000000000000000000000000000000000000000000000000000000000000000000000000000000000000000000000000000000000000000000000000000000000000
#040371:0000000000000000000000000000000000000000000000000000000000000000000000000000005300530000530053000000530053000053005300000000000000000000000000000000000000000000000000000000000000000000000000000000000000000000000000000000000000000000000000000000000000000000
#040361:0000000000000000000000000000000000000000000000000000000000000000000000000000000000000053005300003300005300530000000000000000000000000000000000000000000000000000000000000000000000000000000000000000000000000000000000000000000000000000000000000000000000000000
#040351:0000000000000000000000000000000000000000000000000000000000000000000000000000000000000000000000530053000000000000000000000000000000000000000000000000000000000000000000000000000000000000000000000000000000000000000000000000000000000000000000000000000000000000
#040320:00001323
#040340:0000000000000000000000000000000000000000000000000000000000000000000000000000000000000000000000000000000000000000000000000000000000530000530053000000000000000000000000000000000000005300530000530000000000000000000000000000000000000000000000000000000000000000
#040330:00000000000000000000000000000000000000000000000000000000000000000053000000000000000000000000005300000000000000000000000000000000
#040350:0000000000000000000000000000000000000000000000000000000000000000000000000000000000000000000000000000000000000000000000000000000000000053005300003300530000000000000000000000530033000053005300000000000000000000000000000000000000000000000000000000000000000000
#040360:0000000000000000000000000000000000000000000000000000000000000000000000000000000000000000000000000000000000000000000000000000000000000000000000530053000053005300000053005300005300530000000000000000000000000000000000000000000000000000000000000000000000000000
#040370:0000000000000000000000000000000000000000000000000000000000000000000000000000000000000000000000000000000000000000000000000000000000000000000000000000005300530000330000530053000000000000000000000000000000000000000000000000000000000000000000000000000000000000
#040380:0000000000000000000000000000000000000000000000000000000000000000000000000000000000000000000000000000000000000000000000000000000000000000000000000000000000000053005300000000000000000000000000000000000000000000000000000000000000000000000000000000000000000000
#0403b1:00000013
#040391:0000000000000000000000000000000000000000000000000000000000000000000000000000000000000000000000000000000000000000000000000000000000000000000000000000000000000000000000000000000000000000000000000053000053005300000000000000000000000000000000000000530053000053
#0403a1:00000000000000000000000000000000000000000000000000000000000000000000000000000000000000000000000000530000000000000000000000000053
#040381:0000000000000000000000000000000000000000000000000000000000000000000000000000000000000000000000000000000000000000000000000000000000000000000000000000000000000000000000000000000000000000000000000000005300530000330053000000000000000000000053003300005300530000
#040371:0000000000000000000000000000000000000000000000000000000000000000000000000000000000000000000000000000000000000000000000000000000000000000000000000000000000000000000000000000000000000000000000000000000000000053005300005300530000005300530000530053000000000000
#040361:0000000000000000000000000000000000000000000000000000000000000000000000000000000000000000000000000000000000000000000000000000000000000000000000000000000000000000000000000000000000000000000000000000000000000000000000530053000033000053005300000000000000000000
#040351:0000000000000000000000000000000000000000000000000000000000000000000000000000000000000000000000000000000000000000000000000000000000000000000000000000000000000000000000000000000000000000000000000000000000000000000000000000005300530000000000000000000000000000
#0413b1:23
#0413c1:0012
#041381:00000000000000000000002200000000
#041360:00000000000000000000001200000000
#041320:0000000000000022
#0423c0:0012
#042380:00000000000000000000002200000000
#042361:00000000000000000000001200000000
#042321:0000000000000022
#043371:1300000000000000005300000000000000000000000000000000000000000000
#0433b1:0000005300000000000000002300000000000000000000000000000000000000
#043391:00000053000000000000000000000000
#0443b1:13230000
#044381:0053000000000000
#047381:00130000
#0473b1:0023
#047350:00130000
#047320:0023
#049360:0000001300230000
#049320:0033
#0493b1:0000000000130023
#049371:00000033
#050361:0000000000130023
#050321:00000033
#051371:0000001300230000
#0513b1:0033
#051320:0000000000130023
#051360:00000033
#052370:0000000000130023
#0523b0:00000033
#053380:0000001300230000
#0533b0:0033
#053351:0000000000130023
#053321:00000033
#0533a0:0000000000000014
#054360:00540000000000000000000000000000
#0543a0:00240000
#054360:0013
#0543b0:00000023
#054321:0013
#054371:00000023
#0573b1:0000001323000000
#057320:0013
#057350:0000000000230000
#057381:0000000000130000
#0573b1:00000023
#057320:0000000000001323
#058350:00132300000000000000000000000000
#058381:00001323000000000000000000000000
#058351:00000000001323000000000000000000
#058380:00000000000013230000000000000000
#0583b0:0000000000130000
#058370:00000023
#058321:00000013
#058361:0000000000000023
#0583b0:0000000000000013
#059370:23
#059320:0000001323000000
#0593b1:0013
#059381:0000000000230000
#059350:0000000000130000
#059320:00000023
#0593b1:0000000000001323
#060381:00132300000000000000000000000000
#060350:00001323000000000000000000000000
#060380:00000000001323000000000000000000
#060351:00000000000013230000000000000000
#060371:0000000000130033
#0603b1:00000033
#0613b1:23
#060320:0000000000130033
#060360:00000033
#061360:23
#061360:0000000000130033
#061320:00000033
#062320:23
#0613b1:0000000000130033
#061371:00000033
#062371:23
#062351:0000000000130033
#062321:00000033
#063321:23
#062380:0000000000130033
#0623b0:00000033
#0633b0:23
#063350:0000000000000000000000001253535353535353535353535353535353535353
#063340:00000000000000000000000000000000000000000000000000530053005300530000000000000000000000000000000000000000000000000000000000000000
#063330:00000000000000000000000000000000000000000000000000000000000000000054005400540054005400540054005400000000000000000000000000000000
#063320:00000000000000000000000000000000000000000000000000000000000000000000000000000000000000000000000000550055005500550055005500550055
#064330:25
#063391:00000000000000000000000000000000000000000000000012530053005300530054005400540054005400540054005400550055005500550055005500550055
#063381:0000000000000000000000000053535353535353535353535353535353535353
#064381:25
#065321:1200323232003232
#066321:3200323232322800
#0673c1:1200323232003232
#0683c1:3200323200000000
#068361:0028
