This file was generated by Ched 2.6.2.0.
#TITLE ""
#ARTIST ""
#DESIGNER ""
#DIFFICULTY 0
#PLAYLEVEL
#SONGID ""
#WAVE ""
#WAVEOFFSET 0
#JACKET ""
#REQUEST "ticks_per_beat 480"
#00002: 4
#BPM01: 160
#00008: 01
#TIL00: ""
#HISPEED 00
#MEASUREHS 00
#00119:14
#00113:0014
#0051a:14
#00514:00140000
#00518:0014
#00612:14
#00614:0014
#00618:00140000
#0291a:14140000
#02914:00001414
#03712:14
#03718:00140000
#03714:0014
#0371a:00000014
#0411a:14
#04114:1414
#0411f:11
#04218:14
#04212:1414
#04512:14
#04518:1414
#04614:14
#0461a:1414
#0531a:14
#05312:0014
#05316:00140014
#0541a:14
#05412:0014
#05416:00140014
#00313:14
#00319:0014
#0071a:14
#00712:00140014
#00718:0014
#0081a:14
#00818:0000003414000000
#00914:00140014
#0091a:0014
#00910:41
#01112:1414
#01118:00140014
#0131a:14
#01412:14
#0151a:14
#0171a:00140014
#01714:0014
#01710:41
#01812:00140014
#01818:0014
#0191a:00140014
#01914:0014
#02112:00140000
#0211a:0014
#02114:00000014
#0221a:00140000
#02212:0014
#02218:00000014
#02312:00140000
#0231a:0014
#02314:00000014
#03112:14140000
#03118:00001414
#0391a:14
#03914:00140000
#03918:0014
#03912:00000014
#04718:14140000
#0471a:0014
#04712:14140000
#04714:0014
#04914:0014000000140000
#0491a:24141414
#0491f:21
#0501a:14140000
#05014:14140000
#05018:00001414
#05012:00001414
#05118:0014000000140000
#05112:24141414
#05110:41
#05212:14140000
#05218:14140000
#05214:00001414
#0521a:00001414
#05718:0014000000000000
#05712:24140000
#05714:00001414
#0571a:0000000000140000
#05914:0014000000000000
#0591a:24140000
#05918:00001414
#05912:0000000000140000
#05812:14141400
#05818:0014001400000000
#0601a:14141400
#06014:0014001400000000
#06112:14
#0611a:14
#06114:00140014
#06118:0014
#06212:14
#0621a:14
#06218:00140014
#06214:0014
#06312:0014
#0631a:0014
#0651a:14140000
#06514:00001414
#06618:14140000
#06612:00001414
#06718:16160000
#06712:00001616
#06814:18181800
#06913:14
#06919:14
#04812:14
#04818:14
#00219:1414
#00413:1414
#01018:1414
#01214:1414
#0431a:14
#04314:14
#04312:0014
#04318:0014
#04418:14
#04412:14
#0441a:0014
#04414:0014
#01619:00242424
#01613:00242424
#02019:00242424
#02013:00242424
#06412:00260026
#06418:0026
#02510:41
#03310:41
#04010:41
#0085a:54
#00858:0054
#0135a:64
#01452:64
#0155a:64
#01659:00000014
#01653:00000014
#02053:00000014
#02059:00000014
#04758:00540000
#0475a:0024
#04752:00540000
#04754:0024
#0635a:0054
#06352:0054
#06452:00000016
#04858:14
#04852:14
#0083a0:14
#008380:0000003434000000
#0093a0:24
#0133a0:14
#013380:00000024
#014320:14
#014340:00000024
#0153a0:14
#015380:00000024
#024380:143434343434240000000000
#0253a0:1424
#026340:1424
#027380:1424
#028320:1424
#030390:1535
#030380:00350025
#032320:1535
#032330:00350025
#033320:1424
#034380:1424
#035340:1424
#0363a0:1424
#038330:1535
#038320:00350025
#040380:1535
#040390:00350025
#047380:00140024
#0473a0:0054
#047321:00140024
#047341:0054
#0553a1:1434240000000000
#055321:0000000000143424
#0633a1:1434
#064381:24
#063320:1434
#064340:24
