This file was generated by Ched 2.6.2.0.
#TITLE ""
#ARTIST ""
#DESIGNER ""
#DIFFICULTY 0
#PLAYLEVEL
#SONGID ""
#WAVE ""
#WAVEOFFSET 0
#JACKET ""
#REQUEST "ticks_per_beat 480"
#00002: 4
#BPM01: 176
#00008: 01
#TIL00: ""
#HISPEED 00
#MEASUREHS 00
#00519:14
#00510:41
#00613:14
#00919:14
#01019:14
#01318:14
#01310:41
#01518:14
#01719:14
#01813:14
#01919:14
#02013:14
#03318:2616
#0331f:21
#03412:1616
#03518:1616
#03510:41
#03612:1616
#04019:14
#04013:14
#04912:0016
#04918:26
#04910:41
#05018:16
#05012:0016
#05118:1616
#05212:1616
#05613:14
#05619:14
#00719:14
#00813:14
#01113:14
#01213:14
#01414:14
#01614:14
#04112:2616
#04218:1616
#04312:1616
#04418:1616
#04819:14
#04813:14
#05718:0016
#05712:26
#05710:41
#05812:16
#05818:0016
#05912:1616
#06018:1616
#0211f:11
#00318:26
#06318:26
#06412:26
#00412:26
#06510:41
#000380:16363636
#002380:0026
#0213a0:14
#0223a0:24
#023340:14
#024340:24
#025380:14
#026380:24
#027320:14
#028320:24
#029390:14
#030390:24
#031330:14
#032330:24
#037390:14
#038390:34
#039390:24
#045330:14
#046330:34
#047330:24
#053390:14
#054390:34
#055390:24
#061330:14
#062330:24
#065390:14
#067390:34
#068390:24
#069330:14
#070330:24
#071390:14
#072390:24
#073330:14
#074330:34
#075330:34
#077330:24
