This file was generated by Ched 2.6.2.0.
#TITLE "ex"
#ARTIST ""
#DESIGNER ""
#DIFFICULTY 0
#PLAYLEVEL
#SONGID ""
#WAVE ""
#WAVEOFFSET 0
#JACKET ""
#REQUEST "ticks_per_beat 480"
#00002: 4
#BPM01: 176
#00008: 01
#TIL00: ""
#HISPEED 00
#MEASUREHS 00
#00117:1300001300001300
#0011b:0013000013000013
#00217:0013141516000000
#00212:000000000000000000000000133333333333333333333333
#00518:13000013000000001300000013000000
#00515:0013000000000013
#00512:00130000
#0051b:0000001300000000
#00510:41
#0061b:13
#00616:1313000000000000
#00617:00130000
#00612:0000131300000000
#00615:00001313
#00618:0000000000000013
#00715:13130000
#00718:0013000000000000
#00712:0000001300001300
#00716:0013
#00717:00000013
#0071b:0013
#00815:00120000001200000013000000130000
#0081b:0012001200130013
#00813:00000012000000120000000000000000
#00812:00000000000000000000001300000013
#00819:22220000
#00818:00002323
#00918:1300130000130013
#00915:0013000013001300
#00912:0000130000130013
#01018:0013000013000013
#01015:0000001300001300
#01012:0013000000000013
#0101b:0000001300000000
#01218:13000013000000000000000000001300
#0121b:0000001300001300
#01217:0013
#01215:0013000000001300
#01212:00131300
#01318:0013000000130000
#01315:23000013000013000000000013000000
#0131b:2300130013000013
#01312:0000000013000013
#01310:41
#01412:1300001300000000
#01415:0013000013001300
#01418:00130000
#0141b:1300001313001300
#01417:0000000000130013
#01718:1313000013000000
#01715:00000013000000000000130000000000
#0171b:00130013
#01712:0000001300000013
#01815:13131300
#01818:1300000013131300
#01916:1313130000000000
#0191b:13130000
#01917:0000000013131300
#01912:00001313
#0201b:0013000000000000
#02015:0000130000001313
#02012:0013000013000000
#02018:00000000130000000000130000000013
#02118:0013000000000000
#02115:23000013000013000000000000001300
#0211b:00130000
#02112:00001313
#0211f:11
#02218:13000013
#0221b:0013000000000013
#02212:0000001300001300
#02215:0013
#02318:13130000
#02315:0013000000000000
#0231b:0000001300000000
#02312:0000131300000000
#02316:00000014
#02314:0000000000000018
#0241b:0000000000000013
#02415:0000000000000013
#02412:2c
#02518:1300001300000000
#02512:00131300
#0251b:00001313
#02515:13
#02615:1300130000130013
#02618:0013000000001300
#0261b:0013
#0271b:1313
#02718:0000001300000000
#02715:0000000000000013
#02712:1313
#02812:1300000000000013
#02815:0013000000130000
#02818:00130013
#0281b:13
#02917:13
#02912:14
#02913:0000141400000000
#02914:0000000000141400
#0301b:0012000012000000
#03015:00120000
#03019:0000001200000000
#03018:00000013
#03013:0012000012000000
#03012:00000013
#03315:0013000000130000
#0331b:00130013
#03318:0000001300000013
#03312:2313
#0331f:21
#03417:0000130000130000
#0341b:0000001300000000
#03419:0013
#03418:0013000000000000
#03416:0000001300000000
#03414:0013
#03412:0000130000130000
#03518:0000000000130000
#0351b:00001313
#03515:0013000000000000
#03512:13130000
#03510:41
#03618:13130000
#03615:0013001300160000
#0361b:0000001300000000
#03614:00000018
#03613:000000000000001a
#03612:13
#03713:00000000001a0000
#03714:00000018
#03715:0000000000000016
#03815:13130013
#03818:1300000013000013
#03812:0000000000000013
#03915:0000000000130013
#03918:00000013
#0391b:0013000000000000
#03912:0000001300000000
#04018:13001300003333330000130000333333
#04012:00333333000013000033333300001300
#04118:0013001300000013
#0411b:00130000
#04115:23001313
#04112:0000000000130013
#0421b:0013000000130000
#04218:0000131300000013
#04212:0000001300000000
#04215:0013000013130000
#04318:13130013
#04315:1313
#04312:0013000000130013
#0431b:0000001300130013
#04418:00000013
#04415:1300000000000013
#0441b:0013
#04517:13
#04512:13
#04516:0013
#04518:00000013
#04515:00130000
#0451a:00330000
#04513:00000033
#04618:13
#0461b:00130000
#04617:00000013
#04615:0013
#04612:00000013
#04616:00130000
#0471b:13
#04716:0000000000141400
#04715:0000000000000013
#04718:0000000000000013
#04712:0000001300000000
#04818:0000000000001313
#04815:00000000000000000000000000130013
#0491b:1313130000000000
#04912:1300131313001313
#04917:0000000013131300
#04910:41
#05019:0013000000130000
#0501b:00130013
#05014:0000001300000000
#05017:1313
#05012:1313
#05016:00130013
#05117:1313230000000000
#05116:0000000013132300
#05112:00230000
#0511b:00000023
#0521b:1313
#05215:0013001300001300
#05218:0000130000000013
#05212:1300130013130000
#0531b:1300000000000013
#05317:0000000000131300
#05312:13131313
#05415:0013000000131313
#05412:13
#05418:0000001300000013
#05515:0000000000130013
#0551b:13131313
#05715:0013000000130000
#05718:00131300
#0571b:0000001300000013
#05712:2300001300001300
#05717:00000013
#05710:41
#0581b:0013000000000000
#05818:00130000
#05815:0000001300000000
#05812:0000000013130013
#05817:0013
#06018:13000013
#06015:0000000000000013
#06012:0013
#06512:13
#06515:00000013
#06510:41
#06615:13
#06614:0000000000000033
#06712:00000013
#0681b:0000000000001313
#06912:0000000000001313
#05619:00120000001200000000000000000000
#05615:0012001200130013
#0561b:00000012000000120000001300000013
#05618:00000000000000000013000000130000
#05612:00002323
#05613:22220000
#0311a:14
#03119:0000141400000000
#03118:0000000000141400
#03116:0013000000000000
#01515:1313000000130000
#01518:00000013000013000000000013000000
#01512:0000130013000013
#0151b:0000000013000013
#0161b:1300001300000000
#01618:0013000013001300
#01615:00130000
#01612:1300001313001300
#01616:0000000000130013
#01115:1300130000130013
#01118:0013000013001300
#01112:00000013
#0111b:0000130000000013
#05915:13131313
#05918:13130013
#0591b:0013001300000000
#05912:0000000000130013
#06116:13
#0611b:13
#06117:0013
#06115:00000013
#06118:00130000
#06113:00330000
#0611a:00000033
#06215:13
#06212:00130000
#06216:00000013
#06218:0013
#0621b:00000013
#06217:00130000
#03218:13140000
#03215:0013000000000000
#03214:0000001400000000
#03219:0025
#03212:0025
#00319:00000023000000000000000000000000
#00312:0000002300000023
#00317:0000002300000023
#00314:00000023000000000000000000000000
#0031b:2300000000230000
#00315:0000000000230000
#00316:00000024
#00412:23
#00416:0000002300000000
#00417:23
#00414:00000023000000000000000000000000
#00419:00000023000000000000000000000000
#0041b:0000002300000000
#06312:2300000000230000
#06314:00000023000000000000000000000000
#0631b:0000002300000023
#06316:0000002300002423
#06319:00000023000000000000000000000000
#06318:0000000000230000
#0641b:23
#06416:23
#06419:00000023000000000000000000000000
#06414:00000023000000000000000000000000
#06412:0000002300000000
#06417:0000002300000000
#07019:0000000000000033
#0701a:00000033
#0015b:0043000043000043
#0045b:0000005300000000
#00456:0000005300000000
#00457:00000013
#00452:00000013
#02957:53
#02952:14
#02953:0000001400000000
#02954:00000014
#0145b:00005353
#01457:0000000000230023
#01455:00001313
#01652:00006363
#01656:0000000000230023
#01658:00001313
#0315a:14
#03159:0000001400000000
#03158:00000014
#03156:0053000000000000
#00952:0000130000000013
#00958:0000000000130000
#01058:0013
#0495b:00130000
#04952:1313
#04957:00000013
#05052:1313
#0505b:00130013
#0115b:00130000
#01152:00000013
#01956:00130000
#0195b:00130000
#01957:00000013
#01952:00000013
#01858:53
#01855:0053
#0185b:00130000
#01852:00000013
#02058:00530000
#02352:0000005300000000
#0235b:0000005300000000
#0525b:1313
#05252:00130000
#02558:63
#02552:0063
#0255b:00000063
#02655:00630000
#02858:00630000
#03858:6300000063000063
#03855:00630000
#0395b:0023000000000000
#03552:00130000
#0355b:00000013
#04455:53
#04355:5353
#04358:00530053
#04352:0023000000230000
#0435b:0000002300000023
#04557:53
#04556:0053
#04658:53
#04655:0053
#0465b:00630000
#04652:00000063
#04755:0000000000000063
#0475b:63
#04758:0000000000000053
#0535b:63
#05352:33333333
#05455:0000000013000063
#05452:13
#0545b:00130000
#05458:00000013
#05958:63630000
#0595b:0023002300000000
#05955:00005353
#05952:0000000000230023
#06058:53
#06156:63
#06157:0063
#06255:63
#06252:00530000
#06258:0063
#0625b:00000053
#06452:0000001300000000
#06457:0000001300000000
#00252:0023
#02752:53
#0275b:0053
#0555b:43434343
#03259:0015
#03252:0015
#05152:00130000
#05157:00130000
#05156:00000013
#0515b:00000013
#0003b0:13
#000390:00230000
#000361:00130000
#000341:0023
#000390:0013
#000370:00000023
#000341:00000013
#001321:33
#002321:000000000000000000000000333333333333333333333333
#003321:28
#0043b1:0000001300000000
#004371:00000023
#004360:0000001300000000
#004320:00000023
#005350:00001323
#005320:00000000000000000053005300000000
#006380:00001323
#0063b0:00000000000000000053005300000000
#0143b0:00001333
#014370:0000000000530053
#0153b0:23
#016320:00001333
#016360:0000000000530053
#017320:23
#018380:13
#0183b0:00230000
#018350:0013
#018320:00000023
#020380:00130000
#0203b0:0023
#021370:00001323
#022350:13230000
#022381:00132300
#0233b1:0000001300000000
#023381:0000000000230000
#023320:0000001300000000
#023350:0000000000230000
#024320:1c00005c0000000000000000005c00002c000000000000000000000000000000
#024350:000000000000000000000000000000000000000000000000000000000000000000000000000000000000000000000000000000000000000000000000000000000000000000000000000000000000000000000000000000000000005600000000000000000000000000000000000000000000000000000000000000000000000000000000000000000000000000000000000000000000000000000000000000000000000000000000000000000000000000000000000000000000000000000000000056000000000000000000000000000000000000000000000000000000000000000000000000000000000000000000000000000000000000000000000000000000000000000000000000000000005600000000000000000000000000000000000000000000000000000000000000000000000000000000000000000000000000000000000000000000000000000000000000000000000000000000000000000000000000000000000000000000000000000000000000000000000000000000000000000056000000000000000000000000000000000000000000000000000000000000000000000000000000000000000000000000000000000000000000000000000000000000000000000000000000000000000000000000000000000000000000000000000000000000000000000000000000000000000000000000000000000000000000000000000000000000000000000000000000000000000000000000000000000000000000000000000000000000000000000000000000000000000000000000000000000000000000000000000000000000000000000000000000000000000000000000000000000000000000000000000000000000000000000000000000000000000000000000000000000000000000000000000000000000000000000000000000000000000000000000000000000000000000000000000000000000000000000000000000000000000000000000000000000000000000000000000000000000000000000000000000000000000000000000000000000000000000000000000000000000000000000000000000000000000000000000000000000000000000000000000000000000000000000000000000000000000000000000000000000000000000000000000000000000000000000000000000000000000000000000000000000000000000000000000000000000000000000000000000000000000000000000000000000000000000000000000000000000000000000000000000000000000000000000000000000000000000000000000000000000
#024330:000000000000000000000000005a00003a005a000000000000000000000000000000000000000000000000000000000000000000000000000000000000000000
#025380:13
#0253b0:00230000
#025320:0013
#025350:00000023
#0253b1:00000013
#026381:23
#026351:00130000
#026321:0023
#027321:13
#027351:0000002300000000
#0273b1:0013
#027381:0000000000000023
#028381:00130000
#0283b1:0023
#029371:13
#0303b1:23
#031361:1333000000000000
#031321:00000023
#032381:00000013
#033381:23
#033351:0000132300000000
#033381:0000000013230000
#033351:0000000000000013
#034351:0023000000000000
#035381:13230000
#0353b1:0053000000000000
#035351:00001323
#035321:0000000000530000
#037321:1c2c
#038381:13
#0383b1:00230000
#038350:00130000
#038320:0023
#038381:0013
#0383b1:00000023
#038381:0000000000000013
#0393b1:0053000000000000
#039381:0000002300000000
#040321:13333333000000000000000000000000
#040351:00230000
#040380:00000000133333330000000000000000
#0403b0:0023
#040321:00000000000000001333333300000000
#040351:00000023
#040380:00000000000000000000000013333333
#0413b0:23
#043350:13230000
#043320:0053000000000000
#043381:00132300
#0433b1:0000005300000000
#043350:00001323
#043320:0000000000530000
#043381:00000013
#0433b1:0000000000000053
#044381:23
#044350:13
#044320:0023
#045370:13
#0453a0:00330000
#0453b0:0023
#045361:0013
#045331:00000033
#046321:23
#046380:1323
#0463b0:00330000
#046351:0013
#046321:00000033
#047351:23
#0473b0:13
#047380:0000002300000000
#047350:0000000000000013
#048320:0000000000230000
#047381:0000000000000013
#0483b1:0000000000230000
#051321:13230000
#0513b1:00001323
#0533b1:13
#053371:0023
#0543b1:13230000
#054350:00132300
#054381:00001323
#054351:0000000000000013
#055321:0023
#057361:0000000000000013
#058361:0023000000000000
#058371:0000000000130023
#059381:13332300
#0593b1:0053005300000000
#059350:00001333
#059320:0000000000530053
#060350:23
#060381:13
#0603b1:0023
#061361:13
#061331:00330000
#061321:0023
#061370:0013
#0613a0:00000033
#0623b0:23
#062351:1323
#062321:00330000
#062380:0013
#0623b0:00000033
#063380:23
#0653b0:13
#068380:23
#066351:00000013
#066341:0000000000000033
#067331:23
#068321:13
#069351:23
#0693b0:13
#070380:23
#070321:13
#071351:3300000033333300
#072351:33
#073321:33
#074361:33
#075321:33
#076361:0000000000000023
#0703b0:0000000000130000
#0703a0:00000033
#070390:0000000000000033
#071380:3300000033333300
#072380:33
#0733b0:33
#0743b0:33
#075370:33
#0763b0:0000000000000023
