This file was generated by Ched 2.6.2.0.
#TITLE ""
#ARTIST ""
#DESIGNER ""
#DIFFICULTY 0
#PLAYLEVEL
#SONGID ""
#WAVE ""
#WAVEOFFSET 0
#JACKET ""
#REQUEST "ticks_per_beat 480"
#00002: 4
#BPM01: 176
#00008: 01
#TIL00: ""
#HISPEED 00
#MEASUREHS 00
#00518:13000013000000000000000000001300
#00515:0013130000000000
#0051b:0000001300000000
#00510:41
#00612:13130000
#00618:0013001300000000
#0061b:0000000000000013
#00715:13131300
#0071b:0013001313000000
#00718:00000013
#00712:00000013
#0091b:1300000000130013
#00912:00130000
#00915:13
#01015:0013000000001300
#0101b:0013
#01018:0000000000000013
#01218:13000013000000000000000013000000
#0121b:0000001300000000
#01215:0013130000000013
#01212:0013
#01315:0013130000001300
#01318:23000013000013000000130000000000
#01312:0013
#0131b:0000000000000013
#01310:41
#01412:13131300
#01418:0013001300000000
#01415:00000013
#01715:0013130013000000
#01718:00000013000000000000130000000000
#0171b:0000001300000013
#01712:00000013
#02018:0013000000130000
#02015:00000013
#02118:0013130000000013
#02115:00000013000013000000000000000000
#0211b:0013
#02112:00000013
#0211f:11
#02215:1300130000000013
#0221b:0013000000000000
#02218:0000001300001300
#02212:0013
#02318:13130013
#02315:0013000000000013
#02312:0000001300000000
#02418:0000000000000013
#02515:1313
#02518:0000001300001300
#0251b:0013
#02512:00000013
#02615:0013000000130013
#0261b:13130000
#02618:00000013
#02712:0013
#0271b:13
#02815:0013000000130000
#02818:00130013
#02812:0000000000000013
#0281b:13
#02912:13
#02918:13
#03018:0000001300001300
#03012:00001313
#0301b:0013000000000000
#03015:00130000
#03315:00130013
#03318:0013001300130000
#03312:0013
#0331f:21
#0341b:0000001300000000
#03418:0013
#03415:0000000000130000
#03412:00130000
#03518:1300000000130000
#03512:00000013
#03515:0013000013000000
#0351b:00130000
#03510:41
#03618:13130013
#03615:0013000000000013
#03612:0000001300130000
#0361b:0000001300000000
#03815:0013
#03818:1300000000000013
#03915:0000000000130013
#03918:00000013
#04118:0013000000130000
#04112:00130013
#0411b:0000001300000013
#04115:2313
#04218:0000130013000013
#04215:0000001300000000
#04212:0013000000130000
#04418:00000013
#04415:1300000000000013
#0441b:13
#04518:13
#0451b:00130013
#04512:00000013
#0471b:13
#04715:0000000000130013
#04718:00000013
#0521b:0000000000130000
#05215:00000013
#05218:0014001400000013
#05212:14141400
#05312:13
#05318:0000000000130000
#05315:00000013
#0531b:0000000000000013
#05415:0000000000001313
#05412:13130000
#05418:00130000
#0541b:00001313
#05518:0000000000130013
#05515:00000013
#05715:0013000000130000
#05718:00131300
#05712:0000001300000000
#0571b:13000013
#05710:41
#05818:00131300
#05815:0000001300000000
#06015:00000013
#06018:1300000000000013
#06012:13
#01512:00131300
#01515:0000000000130013
#01518:0013001300001300
#01615:0013001300000000
#0161b:13131300
#01618:00000013
#01815:13
#01818:0013
#0181a:0000000000330000
#0431b:13
#04315:13
#04312:0013
#04318:0013
#01115:13
#0111b:00130000
#01112:0000000000130013
#01912:14140000
#01918:0014000000000000
#0191a:00001414
#01914:0000000000140000
#0311b:0013000000000000
#03115:0013000000000000
#0321b:13
#03215:0013000000000000
#03218:00132600
#03212:0000001300000000
#03715:0000000000130013
#03718:00000013
#0401a:1414000000000000
#04012:0000141400000000
#04018:0014
#04014:0000000000140000
#0401b:0000000000000013
#04918:00130013
#04915:0013001300130000
#0491b:0013
#04910:41
#05012:0000001300000000
#05015:0013
#05018:0000000000130000
#0501b:00130000
#05612:1414000000000000
#0561a:0000141400000000
#05614:0014
#05618:0000000000140000
#05615:0000000000000013
#05912:13
#0591b:0013
#05918:13
#05915:0013
#00815:1313
#00818:00130013
#0081a:2424
#00812:00240024
#0021b:0000000013130000
#00215:00000000000000000013001300000000
#00218:0000000000001313
#00212:00000000000000000000000000130013
#04615:13
#04612:00130013
#0461b:00000013
#06115:13
#06112:00130013
#0611b:00000013
#06218:13
#0621b:00130013
#06212:00000013
#00314:00000028000000000000000024000000
#00312:0000002800000000
#0031a:0000000000240024
#00316:28
#00412:28
#00414:00000028000000000000000000000000
#00416:0000002800000000
#06314:00000028000000000000000000000000
#06316:0000002800000000
#06312:2800000000240024
#06318:00000024
#06416:28
#06414:00000028000000000000000000000000
#06412:0000002800000000
#05112:00240000
#0511a:00000024
#00019:0033
#0001a:00330000
#00014:00330000
#00013:0033
#07013:00000033
#07014:0000000000000033
#0681b:33
#0671b:33000033
#0661b:3300000000003333
#0651b:00000033
#06510:41
#02952:53
#02958:53
#01452:0063
#01455:00000053
#0165b:0053
#01658:00000053
#00952:00130000
#0095b:0000000000130013
#0105b:0013
#01855:63
#01858:0063
#01852:00130000
#0185b:00000013
#02352:0000005300000000
#02555:53
#0265b:00630000
#02858:00630000
#03858:6300000000000063
#03855:0053
#0355b:00130000
#03552:00000013
#0445b:53
#04455:53
#0435b:53
#04355:53
#04352:0063
#04358:0063
#04558:53
#0455b:00530000
#04755:0000000000000063
#0475b:63
#05352:53
#05455:0000000000000063
#0275b:63
#02752:0063
#00456:00000018
#0115b:00130000
#01152:0000000000130013
#01952:00140000
#0195a:00000014
#0315b:0053000000000000
#03155:0053000000000000
#06052:63
#06058:63
#05952:63
#0595b:0053
#05958:63
#05955:0053
#06452:0000001800000000
#04655:63
#04652:00630000
#06155:63
#06152:00630000
#06258:53
#0625b:00530000
#03258:0016
#05152:00140000
#0515a:00000014
#0003b0:13
#0003a0:00330000
#000390:0033
#000380:00000033
#001380:3333000000003333
#002380:0033332300000000
#000351:13
#000341:00330000
#000331:0033
#000321:00000033
#001321:5300003333000000
#002321:0033332300000000
#004361:0000001800002800
#005351:00001323
#006351:00001323
#014321:0013
#014351:00000033
#015321:23
#0163b1:0013
#016381:00000033
#0173b1:23
#018351:13
#018321:00230000
#018381:0013
#0183a1:0000000000330000
#0183b1:00000023
#020351:00132300
#023321:0000001300000000
#023351:0000000000230000
#0243b1:1323
#024381:00330000
#024320:1323
#024350:00330000
#025350:13
#025320:00230000
#0263b0:00130000
#026380:0023
#0273b0:13
#027380:0000002300000000
#027320:0013
#027350:0000000000000023
#028380:00130000
#0283b0:0023
#029320:13
#030350:23
#029381:13
#0303b1:23
#0313b1:1333000000000000
#031381:00000023
#031350:1333000000000000
#031320:00000023
#032350:00000013
#033350:23
#0333b0:0000000000000013
#0343b0:0023000000000000
#0373b0:13
#037380:0023
#038380:13
#0383b0:00230000
#038350:0013
#038320:00000023
#038380:0000000000000013
#0393b0:0000002300000000
#0433b0:13
#043380:00230000
#043351:13
#043321:00230000
#043321:0013
#043351:00000023
#043380:0013
#0433b0:00000023
#0443b0:13
#044380:0023
#044351:13
#044321:0023
#045381:1323
#0453b1:00330000
#046351:1323
#046321:00330000
#0473b1:13
#047381:0000002300000000
#047351:0000000000000013
#048321:0023
#048381:00000013
#049381:23
#049321:0000000000000013
#050321:0023000000000000
#051321:1434240000000000
#0513a1:0000000014342400
#053321:13
#053351:0023
#054351:0000000000000013
#055321:0023
#057351:0000000000000013
#058351:0023000000000000
#058321:0000000000130023
#059321:13
#059351:00230000
#059380:13
#0593b0:00230000
#0593b0:0013
#059380:00000023
#059351:0013
#059321:00000023
#060321:13
#060351:0023
#060380:13
#0603b0:0023
#061350:1323
#061320:00330000
#062380:1323
#0623b0:00330000
#0653b0:13000033
#0663b0:3300000000003333
#0673b0:33000033
#0683b0:33
#068380:00000053
#069380:0000000000003333
#070380:3300000000530000
#0713b0:5300000033333300
#0723b0:33
#072380:00000023
#068321:0000000000001333
#069321:33
#070321:0000000000330000
#070331:00000033
#070341:0000000000000033
#071351:3300000033333300
#072351:33
#072321:00000023
#073361:16
#074381:36
#075351:36
#076381:0000000000000026
