This file was generated by Ched 2.7.0.0.
#TITLE ""
#ARTIST ""
#DESIGNER ""
#DIFFICULTY 0
#PLAYLEVEL
#SONGID ""
#WAVE ""
#WAVEOFFSET 0
#JACKET ""
#REQUEST "ticks_per_beat 480"
#00002: 4
#BPM01: 176
#00008: 01
#TIL00: ""
#VOLUME: ""
#HISPEED 00
#MEASUREHS 00
#00118:1200000000000014
#0011a:0014000000000000
#00117:0000001200000000
#00119:0014
#00116:00000012
#00219:140000140000140000140000000000000000001300000000
#00213:140000140000140000140000000013000000000000000000
#00212:0013
#00216:000000000000000000000000001300000000000013000000
#0021a:0000000000000013
#00214:000013
#00215:00000013
#00217:000000000000000000000000000000130000000000001300
#00218:000000000000000000000000000000000013000000000000
#0021b:000000000000000000000000000000000000000000000013
#0051c:12001212
#00516:0012000000000000
#00518:00000012000012000000120000000000
#00514:0000120000000012
#00512:1200001200000000
#0051a:0000120000000012
#00510:41
#00616:0012000000120000
#0061a:0000000000000012
#00612:12001212
#0061c:00120000
#00618:0000001200000000
#00614:0000000000000012
#00716:12
#0071c:12
#00714:0012000000000000
#00718:00120000
#00712:00120000
#0071a:0000001200000000
#0091b:1300130000001313
#00912:1300000013130000
#00916:0000000014141414
#01017:0013000000000000
#01016:00130000
#0101b:00130000
#01012:0013000013000000
#01018:00000000000000000013000000000000
#01013:0000000000130000
#01019:00000000000000000000001300000000
#01014:00000013
#0101a:00000000000000000000000000130000
#01015:0000000000000013
#01216:13
#0121b:1300000013131300
#01217:0000130000000013
#01215:00000000000000130000000000000000
#01213:00000000000000000000000000000013
#01212:0000000013131300
#01312:0013130000000000
#01316:23000013000013000000000000000000
#0131b:2300001300000000
#01318:0016
#01319:00130000
#01310:41
#01417:0013001300130000
#0141b:00131300
#01415:13
#01412:0013001300130000
#01416:00131300
#01917:13000013
#01912:0013000000000000
#01916:00131300
#0191b:0000000000130000
#0201b:0013130000130000
#02015:1600001300001313
#02018:00000000000013000000000000130013
#02012:0013130000130000
#0211b:2313000000001313
#02118:00000013000000000000000000000000
#02115:00130000
#02117:0000001313000000
#02112:2300001313000000
#02116:0000000000000013
#0211f:11
#02215:0013000000000013
#02218:0000001300001300
#02212:1414
#0221a:0013140000000000
#02216:14141400
#02213:0000001300000000
#0231a:14130013
#02314:0013000000130000
#02317:00000013000000000000001300000000
#02312:14000000130000000000000013001c1c
#02319:0000001300000000
#02316:00000000000000130000000000000000
#0231b:0013
#02313:0013
#0241b:0000000000000013
#02412:2600000000000013
#02418:26350000
#02413:00350000
#02517:1300001300000013
#02512:13131300
#0251b:0013000013001300
#02516:0013000000130000
#02519:0000000000130000
#02514:0000000000000013
#02612:1300001300001300
#02616:0013130000000000
#0261b:00131300
#02614:0000000000130013
#02618:00000013
#02617:0000001300000000
#0271b:13
#0271a:0000001300000000
#02716:0013
#02715:0000000000000013
#02717:13
#02712:0013
#0281b:1313130000001300
#02812:0013001300131313
#02817:0000001300130013
#02816:13130000
#0301c:0012000000000000
#03016:0012120000000000
#03018:0000001212000000
#03019:00000013
#03012:0012
#03014:0000001200001300
#0301b:13
#0301a:00120000
#03312:0013000000130000
#0331b:00130013
#03317:0000001300000013
#03316:2313
#0331f:21
#03417:0000131300130000
#03416:0013000000001300
#0341b:00001313
#03412:13130000
#03612:13001300001c1c1c
#03616:0013001300000000
#03812:1300130000000015
#0381b:1313
#03816:0013000000131300
#03813:0013000000130000
#03817:0000001300000000
#0381a:0000001300000000
#03819:0000000000000015
#04116:0013000000000000
#04117:0000130000131300
#0411b:2313001313000013
#04112:23
#04217:0013000000000000
#0421b:0000000000000013
#04212:0013001313000000
#04216:0000130000130013
#04412:13000013
#04417:0000130000001313
#0441b:0013
#0441a:00130000
#05216:1400141314001300
#05212:00140013
#05218:0000000000000013
#05217:0013000000130000
#0521a:1400001314000000
#05213:0013000000000000
#05315:0013001300130013
#0531b:1300000000130013
#05312:13131313
#05317:00130000
#05318:00000013
#05512:00000013000000000000000000000000
#0551b:13131300
#05518:0013001300000000
#05519:0000000000131313
#05514:0000000000131313
#05812:0000000000000013
#0581b:0013001313130000
#05816:0013000000000000
#05817:00130000
#06018:00000013
#06015:0000000000000013
#06016:13
#0601b:13
#06012:00130000
#06017:00130000
#06512:13000013
#06510:41
#06616:13000013
#06614:0000000000000013
#06916:00000013
#06914:0000000000000013
#0691b:13
#01512:0013
#01515:0000000000130000
#01518:00000013
#0151b:0013001300000013
#01517:0013
#01516:1300130000000013
#01112:0000130013000014
#01116:13000013
#01119:0013000000130000
#01117:00131300
#01118:0000000000000014
#0111b:13000013
#01114:0013000000130000
#05418:0000000000000013
#05412:13
#05414:0013000000130000
#05419:0000001300000000
#05416:00000013
#05415:0000000000000013
#0591b:1313001313001300
#05912:1300130000130013
#05916:0013001300001300
#05917:0000130000130013
#06116:1300001300130000
#0611b:13000000130000130000130000000000
#06112:00001300000000001300000013000013
#06117:0013000013000013
#00412:00000000000026000012000000000000
#0041c:00000000000000000012000000000000
#00418:0000002600000000
#00414:00000028000000000000000000000000
#00416:24
#0171b:0013130013130000
#01717:13000013000013000000000000000000
#01712:1300001300001313
#01714:00130000
#0181a:14
#01816:0014140000141400
#0181b:00000000130000000013001300000000
#01812:00130013000000001400000013000000
#02916:18
#02918:0000000000000000003300000000000000000000003300000000000000000000
#02919:00000000003300000000003300000000
#0291a:0000000000000000000000330000000000000000000000330000000000000000
#03112:18
#03119:00130013001300130013001300000000
#0311a:0013001300130013001300130013001300130013001300130000000000000000
#0311b:1313131313130000
#03115:0000000000000000003300000000000000000000003300000000000000000000
#03114:00000000003300000000003300000000
#03113:0000000000000000000000330000000000000000000000330000000000000000
#0321b:00000000000000000000000000130000
#03218:00000013
#03212:00000000000000000000000000130000
#03215:00000013
#03213:1a1a1a1a1a1a1a1a2a00000000000000
#03515:16001300000000001600001300000000
#03512:00130000160000000000000013000000
#03518:00000013000000000000130016000000
#0351b:00000000130000000013000000000000
#03510:41
#03712:00000000001c1c1c
#04012:13131313
#0401b:13131313
#04018:00130013000013000013001300001300
#04015:00001300001300130000130000130013
#03916:0012000000000000
#03918:0012000000000000
#03912:00000000001c1c1c
#04615:0013000000000000
#04612:1315
#04613:00130000
#04616:0000001300000000
#04718:1600001600000000
#04712:1600001c000016000000000000000000
#04812:1600001c000016000000000000000014
#04818:1600001600000000
#04816:0000000000001414
#0481a:00000000000000000000000000140000
#0451b:13
#04517:0013000000130000
#04516:0000001300000000
#04518:00000013
#04513:0000000000000013
#04519:0000000000000013
#04317:13
#0431b:0013000000130000
#04312:0000001300000013
#04912:18141814
#04916:00180018
#04914:0014000000140000
#04918:0000001400000014
#0491a:1414
#04910:41
#0671b:13000013
#06817:13000013
#06819:0000000000000013
#07012:13
#0701b:0000000000130000
#07015:00000013
#07018:0000000000000013
#07112:13000013
#0711b:13000013
#07114:0013
#07119:0013
#0711a:0000000000130000
#07113:0000000000130000
#07212:0000001300000000
#07215:13
#0721b:0000001300000000
#07218:13
#0731b:13
#07312:13
#07418:13
#07415:13
#0751b:13
#07512:13
#07618:1312131213121312131213121312131213121312131213121312131200000000
#07618:1312131213121312131213121312131213121312131213121312131200000000
#07616:0012001200120012001200120012001200120012001200120012001200000000
#07615:13131313131313131313131313130000
#01612:0000000013000000000000001300000000000000001500000000000000000000
#01619:0000000000000000000000000000000000000000001500000000000000000000
#01617:13130000
#0511b:130000000000000000000000000000000013000000000000
#05116:001300000000280000000000000000001300000000000000
#05119:000013000000000000000000000000130000000000000000
#05114:000000130000000000000000000013000000000000000000
#05117:000000001300000000000000001300000000000000000000
#05112:000000000013000000000000130000000000280000000000
#05612:13002324
#0561b:2313
#05615:00130000000000130000000000000000
#05619:0013001300000000
#05617:00000013001300000000000000000000
#05618:00000000000000000013000000000013
#05614:0000000000130013
#05616:00000000000000000000001300130000
#0561a:00240000
#05717:0013000000000000
#05716:0000130000131300
#05712:2313001313000013
#0571b:23
#05710:41
#05012:1c131c001c131c00
#05017:0013000000130000
#0501b:0000001300000013
#05016:0000001300000013
#06216:1300001300130000
#0621b:13000000130000130000130000000000
#06212:00001300000000001300000013000013
#06217:0013000013000013
#0081b:23130000230000002313000023000000
#00816:00001200000000120000120000000012
#00818:00000012000012000000001200001200
#00812:23000000231300002300000023130000
#00312:0000002c00000000
#00314:00000028000000000000000000000000
#00316:2400000000240024
#06312:0000002c00000000
#06314:00000028000000000000000000000000
#06316:2400000000240024
#06414:00000028000000000000000000000000
#06416:24
#06412:0000002c00000000
#0015a:0044000000000000
#00159:0044
#00158:0000000000000044
#00452:00000000000056000022000046000000
#0045c:00000000000000000022000000000000
#00458:0000006600003600
#0205b:00530000
#02058:0000002300000000
#02052:00630000
#02055:0000002300000000
#02557:6300000000000023
#0255b:0023000000005300
#02552:0063
#02556:0000000000230000
#0385b:63436343
#03852:3300530033000065
#03856:0023000000230000
#03857:0000002300000000
#03859:0000000000000055
#05552:00000063000000000000000000000000
#0555b:43434300
#05952:63633300
#05956:0023002300003300
#0595b:43005353
#05957:0000430000230023
#06056:53
#0605b:53
#06052:00230000
#06057:00230000
#06156:63
#06152:0023000013000000
#0615b:1300000000230000
#06157:0053
#02757:53
#02756:0053
#05352:33333333
#05357:00630000
#0535b:23
#00952:63
#00956:0000130000140014
#01052:0053000000000000
#01057:0053000000000000
#01056:00230000
#0105b:00230000
#01152:00330000
#01157:00430000
#0115b:00000043
#01156:00000033
#01256:63
#01652:0000000000000000000000000000000000000000002500001200000000000000
#0165c:00000012
#01659:0000000000000000000000000000000000000000002500000000000000000000
#0145b:00005343
#01456:00005343
#01457:0000000000230000
#01452:0000000000230000
#0185b:00430000
#01852:00000033
#0195b:00430000
#01956:00430000
#01957:00000033
#01952:00000033
#02252:3434
#0225a:00440000
#02152:0053
#02656:00530000
#02652:0000002300000000
#02856:00630000
#02852:0000002300000000
#0285b:00630000
#02857:0000002300000000
#0295b:0000004300004300
#02956:48
#03152:3800003300003300
#03159:00230023002300230023002300000000
#0315a:0053005300530053005300530053005300530053005300530000000000000000
#0315b:2323232323230000
#0325b:00000000000000000000000000230000
#03258:00000063
#03252:00000000000000000000000000230000
#03255:00000053
#03253:001a
#03357:0000000000000063
#0355b:00430000
#03552:00360033
#03558:00000046
#03956:0022000000000000
#03958:0022000000000000
#04758:36
#04752:0000003c000036000000000000000000
#04757:0000000000000012
#04852:4600004c000000000000000000000000
#04858:0000004600000000
#0455b:13
#04652:13
#04256:0000000000130000
#0415b:0000000000000013
#04452:53
#04457:00230000
#04456:43
#04956:00480048
#04952:3838
#05156:00480000
#05152:00000038
#05455:0000000000000023
#05452:4343
#0545b:00330033
#0585b:0000000000530000
#05852:0000000000130000
#06552:63
#06656:63
#0675b:53
#06857:53
#07052:63
#0695b:63
#07152:63
#0715b:53
#07255:63
#07252:0000002300000000
#0725b:0000002300000000
#07258:53
#0735b:53
#07352:63
#07458:53
#07455:63
#0755b:53
#07552:63
#07658:2362236223622362236223622362236223622362236223622362236200000000
#07658:2362236223622362236223622362236223622362236223622362236200000000
#07656:0052005200520052005200520052005200520052005200520052005200000000
#07655:23232323232323232323232323230000
#04357:43330033
#04356:0043
#05752:0000000000000013
#0525a:4444
#05252:00340000
#05052:3c4c3c4c
#06256:63
#0625b:1300000000230000
#06252:0023000013000000
#06257:0053
#000390:12220000
#000341:00122200
#000370:00001222
#000321:00000012
#001321:0000000000000022
#0033b1:0000000000132300
#003320:0000000000001323
#004320:00000000000016000052000026000000
#004381:0000001600002600
#0043c1:00000000000000000052000000000000
#005361:00001222
#005321:00000000000000000052005200000000
#006381:1222000000000000
#006361:0000122200000000
#006381:00001222
#0063c1:00000000000000000052005200000000
#007321:00001222
#0073c0:00001222
#009320:13
#009360:00230000
#010320:0013002300000000
#010360:00530000
#010371:0013002300000000
#0103b1:00530000
#012361:13
#012321:00230000
#013321:0000000016260000
#013380:0000000000162600
#013321:0000000000001626
#013380:0000000000000016
#014380:26
#0143b0:00001323
#014370:0000000000530000
#014361:00001323
#014321:0000000000530000
#015321:13330000
#015361:0033002300000000
#0163b1:13330000
#016371:0033002300000000
#016391:0000000000000000000000000000000015000000005500000000000000000000
#0163a1:000054
#0163c1:00000000000000000000000000000000000000000000000000000000000000000000000000000000000000520000000022000000000000000000000000000000
#016320:000000000000000000000000000000000000000000000000000000000000000000000000000000000000000000000000000000000000000000000000000000000000000000000000000000000000000000000000000000000000000000000000150000000000000000000000000000000000000000000000000000000000550054520000000000000000000000000000220000000000000000000000000000000000000000000000000000000000000000000000000000000000000000000000
#017360:0000000013230000
#017370:0000000000001323
#0193b0:13230000
#019370:00533353000000000000000000000000
#019320:00001323
#019360:00000000000000000053335300000000
#0203b0:00132300
#020380:0000005300000000
#020321:00132300
#020351:0000005300000000
#021321:0013
#021361:00000023
#024321:165c0000000000000000000000000000000000000000000000000000000000000000000000000000000000000000000000000000000000000000000000000000000000000000000000000000000000000000000000000000000000000000000000000000000000000000000000000000000000000000000000000000000000000000000000000000000000000000000000000000000000000000000000000000000000000000000000000000000000000000005c000000000000000000000000000000000000000000000000000000000000000000000000000000000000000000000000000000000000000000000000000000000000000000000000000000000000000000000000000000000000000000000000000000000000000000000000000000000000000000000000000000000000000000000000000000000000000000000000000000000000000000000000000000000000000000000000000000000000000000000000000000000000000000000000000000000000000000000000000000000000000000000000000000000000000000000000000000000000000000000000000000000000000000000000000000000000000000000000000000000000000000000000000000000000000000000000000000000000000000000000000000000000000000000000000000000000000000000000000000000000000000000000000000000000000000000000000000000000000000000000000000000000000000000000000000000000000000000000000000000000000000000000000000000000000000000000000000000000000000000000000000000000000000000000000000000000000000000000000000000000000000000000000000000000000000000000000000000000000000000000000000000000000000000000000000000000000000000000000000000000000000000000000000000000000000000000000000000000000000000000000000000000000000000000000000000000000000000000000000000000000000000000000000000000000000000000000000000000000000000000005c0000000000000000000000000000000000000000000000000000000000000000000000000000000000000000000000000000000000000000000000000000000000000000000000000000000000000000000000000000000000000000000000000000000000000000000000000000000000000000000000000000000000000000000000000000000000000000000000000000000000000000000000000000000000000000000000000000000000000000005c260000000000000000000000000000000000000000000000000000000000000000000000000000000000000000000000000000000000000000000000000000000000000000000000000000000000000000000000000000000000000000000000000000000000000000000000000000000000000000000000000000000000000000000000000000000000000000000000000000000000000000000000000000000000000000000000000000000000000000000000000000000000000000000000000000000000000000000000000000000000000000000000000000000000000000000000000000000000000000000000000000000000000000000000000000000000000000000000000000000000000000000000000000000000000000000000000000000000000000000000000000000000000000000000000000000000000000000000000000000000000000000000000000000000000000000000000000000000000000000000000000000000000000000000000000000000000000000000000000000000000000000000000000000000000000000000000000000000000000000000000000000000000000000000000000000000000000000000000000000000000000000000000000000000000000000000000000000000000000000000000000000000000000000000000000000000000000000000000000000000000000000000000000000000000000000000000000000000000000000000000000000000000000000000000000000000000000000000000000000000000000000000000000000000000000000000000000000000000000000000000000000000000000000000000000000000000000000000000000000000000000000000000000000000000000000000000000000000000000000000000000000000000000000000000000000000000000000000000000000000000000000000000000000000000000000000000000000000000000000000000000000000000000000000000000000000000000000000000000000000000000000000000000000000000000000000000000000000000000000000000000000000000000000000000000000000000000000000000000000000000000000000000000000000000000000000000000000000000000000000000000000000000000000000000000000000000000000000000000000000000000000000000000000000000000000000000000000000000000000000000000000000000000000000000000000000000000000000000000000000000000000000000000000000000000000000000000000000000000000000
#024351:00000000000000000000000000000000000000000000000000000000000000000000000000000000000000000000000000000000000000000000000056000000000000000000000000000000000000000000000000000000000000000000000000000000000000000000000000000000000000000000000000000000000000000000000000560000000000000000000000000000000000000000000000000000000000000000000000000000000000000000000000000000000000560000000000000000000000000000000000000000000000000000000000000000000000000000000000000000000000000000000000000000000000000000000000000000000000005600000000000000000000000000000000000000000000000000000000000000000000000000000000000000000000000000000000000000000000000000000000000000000000000000000000000000000000000000000000000000000000000000000000000000000000000000000000000000000000000000000000000000000000000000000000000000000000000000000000000000000000000000000000000000000000000000000000000000000000000000000000000000000000000000000000000000000000000000000000000000000000000000000000000000000000000000000000000000000000000000000000000000000000000000000000000000000000000000000000000000000000000000000000000000000000000000000000000000000000000000000000000000000000000000000000000000000000000000000000000000000000000000000000000000000000000000000000000000000000000000000000000000000000000000000000000000
#024331:00000000005a355a00000000000000000000000000000000
#024380:16352600
#024320:00005c00000000000000000000000000000000000000000000000000000000000000000000000000000000000000000000000000000000000000000000000000000000000000000000000000000000000000000000000000000000000000000000000000000000000000000000000000000000000000000000000000000000000000000000000000000000000000000000000000000000000000000000000000000000000000000000000000000000000000005c0000000000000000000000000000000000000000000000000000000000000000000000000000000000000000000000000000000000000000000000000000000000000000000000000000000000000000000000000000000000000000000000000000000000000000000000000000000000000000000000000000000000000000000000000000000000000000000000000000000000000000000000000000000000000000000000000000000000000000000000000000000000000000000000000000000000000000000000000000000000000000000000000000000000000000000000000000000000000000000000000000000000000000000000000000000000000000000000000000000000000000000000000000000000000000000000000000000000000000000000000000000000000000000000000000000000000000000000000000000000000000000000000000000000000000000000000000000000000000000000000000000000000000000000000000000000000000000000000000000000000000000000000000000000000000000000000000000000000000000000000000000000000000000000000000000000000000000000000000000000000000000000000000000000000000000000000000000000000000000000000000000000000000000000000000000000000000000000000000000000000000000000000000000000000000000000000000000000000000000000000000000000000000000000000000000000000000000000000000000000000000000000000000000000000000000000000000000000000000000000000000005c0000000000000000000000000000000000000000000000000000000000000000000000000000000000000000000000000000000000000000000000000000000000000000000000000000000000000000000000000000000000000000000000000000000000000000000000000000000000000000000000000000000000000000000000000000000000000000000000000000000000000000000000000000000000000000000000000000000000005c00000000000000000000000000000000000000000000000000000000000000000000000000000000000000000000000000000000000000000000000000000000000000000000000000000000000000000000000000000000000000000000000000000000000000000000000000000000000000000000000000000000000000000000000000000000000000000000000000000000000000000000000000000000000000000000000000000000000000000000000000000000000000000000000000000000000000000000000000000000000000000000000000000000000000000000000000000000000000000000000000000000000000000000000000000000000000000000000000000000000000000000000000000000000000000000000000000000000000000000000000000000000000000000000000000000000000000000000000000000000000000000000000000000000000000000000000000000000000000000000000000000000000000000000000000000000000000000000000000000000000000000000000000000000000000000000000000000000000000000000000000000000000000000000000000000000000000000000000000000000000000000000000000000000000000000000000000000000000000000000000000000000000000000000000000000000000000000000000000000000000000000000000000000000000000000000000000000000000000000000000000000000000000000000000000000000000000000000000000000000000000000000000000000000000000000000000000000000000000000000000000000000000000000000000000000000000000000000000000000000000000000000000000000000000000000000000000000000000000000000000000000000000000000000000000000000000000000000000000000000000000000000000000000000000000000000000000000000000000000000000000000000000000000000000000000000000000000000000000000000000000000000000000000000000000000000000000000000000000000000000000000000000000000000000000000000000000000000000000000000000000000000000000000000000000000000000000000000000000000000000000000000000000000000000000000000000000000000000000000000000000000000000000000000000000000000000000000000000000000000000000000000000000000000000000000000000000000000000000000000000000000000000000000000000000000000000000000000000000000000000
#024350:000000000000000000000000000000000000000000000000000000000000000000000000000000000000000000000000000000000000000000000000000000000000000000000000000000000000000000000000000000000000000000000000000000000000000000000000000000000000000000000000000000000000000000000000000000000000000000000000000000000000000000000000000000000000000000000000000000000000000000000000000000560000000000000000000000000000000000000000000000000000000000000000000000000000000000000000000000000000000000000000000000000000000000000000000000000000000000000000000000000000000000000000000000000000000000000000000000000000000000000000000000000000000000000000000000000000000000000000000000000000000000000000000000000000000000000000000000000000000000000000000000000000000000000000000000000000000000000000000000000000000000000000000056000000000000000000000000000000000000000000000000000000000000000000000000000000000000000000000000000000000000000000000000000000000000000000000000000000000000000000000000000000000000000000000000000000000000000000000000000000000000000000000000000000000000000000000000000000000000000000000000000000000000000000000000000000000000005600000000000000000000000000000000000000000000000000000000000000000000000000000000000000000000000000000000000000000000000000000000000000000000000000000000000000000000000000000000000000000000000000000000000000000000000000000000000000000000000000000000000000000000000000000000000000000000000000000000000000000000000000000000000000000000000000000000000000000000000000000000000000000000000000000000000000000000000000000000000000000000000056000000000000000000000000000000000000000000000000000000000000000000000000000000000000000000000000000000000000000000000000000000000000000000000000000000000000000000000000000000000000000000000000000000000000000000000000000000000000000000000000000000000000000000000000000000000000000000000000000000000000000000000000000000000000000000000000000000000000000000000000000000000000000000000000000000000000000000000000000000000000000000000000000000000000000000000000000000000000000000000000000000000000000000000000000000000000000000000000000000000000000000000000000000000000000000000000000000000000000000000000000000000000000000000000000000000000000000000000000000000000000000000000000000000000000000000000000000000000000000000000000000000000000000000000000000000000000000000000000000000000000000000000000000000000000000000000000000000000000000000000000000000000000000000000000000000000000000000000000000000000000000000000000000000000000000000000000000000000000000000000000000000000000000000000000000000000000000000000000000000000000000000000000000000000000000000000000000000000000000000000000000000000000000000000000000000000000000000000000000000000000000000000000000000000000000000000000000000000000000000000000000000000000000000000000000000000000000000000000000000000000000000000000000000000000000000000000000000000000000000000000000000000000000000000000000000000000000000000000000000000000000000000000000000000000000000000000000000000000000000000000000000000000000000000000000000000000000000000000000000000000000000000000000000000000000000000000000000000000000000000000000000000000000000000000000000000000000000000000000000000000000000000000000000000000000000000000000000000000000000000000000000000000000000000000000000000000000000000000000000000000000000000000000000000000000000000000000000000000000000000000000000000000000000000000000000000000000000000000000000000000000000000000000000000000000000000000000000000000000000000000000000000000000000000000000000000000000000000000000000000000000000000000000000000000000000000000000000000000000000000000000000000000000000000000000000000000000000000000000000000000000000000000000000000000000000000000000000000000000000000000000000000000000000000000000000000000000000000000000000000000000000000000000000000000000000000000000000000000000000000
#024330:00000000000000000000000000000000000000000000000000000000000000000000000000000000000000000000000000000000000000000000000000000000000000000000000000000000000000000000000000000000000000000000000000000000000000000000000000000000000000000000000000000000000000000000000000000000000000000000000000000000000000000000000000000000000000000000000000000000000000000000000000000000000000000000000000000000000000000000000000000000000000000000000000000000000000000000000000000000000000000000000000000000000000000000000000000000000000000000000000000000000000000000000000000000000000000000000000000000000000000000000000000000000000000000000000000000000000000000000000000000000000000000000000000000000000000000000000000000000000000000000000000000000000000000000000000000000000000000000000000000000000000000000000000000005a000000000000000000000000000000000000000000000000000000000000000000000000000000000000000000000000000000000000000000000000000000000000000000000000000000000000000000000000000000000000000000000000000000000000000000000000000000000000000000000000000000000000000000000000000000000000000000000000000000000000000000000000005a00000000000000000000000000000000000000000000000000000000000000000000000000000000000000000000000000000000000000000000000000000000000000000000000000000000000000000000000000000000000000000000000000000000000000000000000000000000000000000000000000000000000000000000000000000000000000000000000000000000000000000000000000000000000000000000000000000000000000000000000000000000000000000000000000000000000000000000000000000000000000000000000000000000000000000000000000000000000000000000000000000000000000000000000000000000000000000000000000000000000000000000000000000000000000000000000000000000000000000000000000000000000000000000000000000000000000000000000000000000000000000000000000000000000000000000000000000000000000000000000000000000000000000000000000000000000000000000000000000000000000000000000000000000000000000000000000000000000000000000000000000000000000000000000000000000000000000000000000000000000000000000000000000000000000000000000000000000000000000000000000000000000000000000000000000000000000000000000000000000000000000000000000000000000000000000000000000000000000000000000000000000000000000000000000000000000000000000000000000000000000000000000000000000000000000000000000000000000000000000000000000000000000000000000000000000000000000000000000000000000000000000000000000000000000000000000000000000000000000000000000000000000000000000000000000000000000000000000000000000000000000000000000000000000000000000000000000000000000000000000000000000000000000000000000000000000000000000000000000000000000000000000000000000000000000000000000000000000000000000000000000000000000000000000000000000000000000000000000000000000000000000000000000000000000000000000000000000000000000000000000000000000000000000000000000000000000000000000000000000000000000000000000000000000000000000000000000000000000000000000000000000000000000000000000000000000000000000000000000000000000000000000000000000000000000000000000000000000000000000000000000000000000000000000000000000000000000000000000000000000000000000000000000000000000000000000000000000000000000000000000000000000000000000000000000000000000000000000000000000000000000000000000000000000000000000000000000000000000000000000000000000000000000000000000000000000000000000000000000000000000000000000000000000000000000000000000000000000000000000000000000000000000000000000000000000000000000000000000000000000000000000000000000000000000000000000000000000000000000000000000000000000000000000000000000000000000000000000000000000000000000000000000000000000000000000000000000000000000000000000000000000000000000000000000000000000000000000000000000000000000000000000000000000000000000000000000000000000000000000000000000000000000000000000000000000000000000000000000000000000000000000000000000000
#025370:13230000
#0253b0:0053000000000000
#025320:00001323
#025360:0000000000530000
#0253b1:00000013
#025371:0000000000000053
#0263b1:23
#026361:00132300
#026321:0000005300000000
#027371:13
#027321:0000002300000000
#027361:0013
#0273b1:0000000000000023
#028361:00132300
#028321:0000005300000000
#0283b0:00132300
#028370:0000005300000000
#029320:135353535353535353535353535353535353535353535353
#029330:005300530053005300530053005300530053005300530053005300530053005300530053005300530053005300530053
#030320:23
#029361:00130000
#029381:0000000000000000003300000000000000000000000000000000000000000000
#029391:00000000003300000000000000000000
#0293a1:0000000000000000000000330000000000000000000000000000000000000000
#0293b1:0000002300000000
#029361:0000000000130000
#029381:0000000000000000000000000000000000000000003300000000000000000000
#029391:00000000000000000000003300000000
#0293a1:0000000000000000000000000000000000000000000000330000000000000000
#0293b1:00000023
#0313b0:1353535353532300
#0313a0:0053005300530053005300530053005300530053005300530000000000000000
#031390:00530053005300530053005300000000
#031371:00130000
#031351:0000000000000000003300000000000000000000000000000000000000000000
#031341:00000000003300000000000000000000
#031331:0000000000000000000000330000000000000000000000000000000000000000
#031321:0000002300000000
#031371:0000000000130000
#031351:0000000000000000000000000000000000000000003300000000000000000000
#031341:00000000000000000000003300000000
#031331:0000000000000000000000000000000000000000000000330000000000000000
#031321:00000023
#032381:0000000000001323
#0323b1:00000000000000000000000000530000
#032350:0000000000001323
#032320:00000000000000000000000000530000
#0333b0:13
#033370:0023000000000000
#033360:00130000
#033320:0000002300000000
#0333b0:0013
#033370:0000000000230000
#033360:00000013
#033320:0000000000000023
#033371:0000000000000013
#0343b1:0023000000000000
#034321:0000001300230000
#034371:0033
#036371:13330000
#0363b1:0033002300000000
#037321:1656565626000000
#037381:00560056005600560000000000000000
#037380:1656565626000000
#037320:00560056005600560000000000000000
#0383b0:13230000
#038360:0053000000000000
#038321:00132300
#038371:0000005300000000
#0383b0:00001323
#038360:0000000000530000
#038320:0000000000000015
#039360:0052000000000000
#039320:0000002500000000
#038391:0000000000000015
#039381:0052000000000000
#039391:0000002500000000
#041321:00130000
#041361:0000002300000000
#041361:0013
#041321:0000000000230000
#041321:00000013
#041361:0000000000000023
#0423b1:00130000
#042371:0000002300000000
#042371:0013
#0423b1:0000000000230000
#043321:13
#043371:00230000
#0433b0:00130000
#043360:0023
#043321:0013
#043371:00000023
#0433b0:00000013
#044360:23
#044321:1323
#044371:00530000
#045361:13
#045321:0033000000000000
#045341:00230000
#045370:00130000
#0453b0:0000003300000000
#045390:0023
#045361:0013
#045321:0000000000330000
#045341:00000023
#0463b1:110000000000000000000000000000000000000000000000000000000000000000000000000000000000000000000000000000000000000000000000000000000000000000000000000000000000000000000000000000000000000000000000000000000000000000000000000000000000000000000000000000000000000000000000000000000000000000000000000000000000000000000000000000000000000000000000000000000000000000000000000000000000000000000000000000000000000000000000000000000000000000000000000000000000000000000000000000000000005100000000000000000000000000000000000000000000000000000000000000000000000000000000000000000000000000000000000000000000000000000000000000000000000000000000000000000000000000000000000000000000000000000000000000000000000000000000000000000000000000000000000000000000000000000000000000000000000000000000000000000000000000000000000000000000000000000000000000000000000000000000000000000000000000000000000000000000000000000000000000000000000000000000000000000000000000000000000000000000000000000000000000000000000000000000000000000000000000000000000000000000000000000000000000000000000000000000000000000000000000000000000000000000000000000000000000000000000000000000000000000000000000000000000000000000000000000000000000000000000000000000000000000000000000000000000000000000000000000000000000000000000000000000000000000000000000000000000000000000000000000000000000000000000000000000000000000000000000000000000000000000000000000000000000000000000000000000000000000000000000000000005100000000000000000000000000000000000000000000000000000000000000000000000000000000000000000000000000000000000000000000000000000000000000000000000000000000000000000000000000000000000000000000000000000000000000000000000000000000000000000000000000000000000000000000000000000000000000000000000000000000000000000000000000000000000000000000000000000000000000000000000000000000000000000000000000000000000000000000000000000000000000000000000000000000000000000000000000000000000000000000510000000000000000000000000000000000000000000000000000000000000000000000000000000000000000000000000000000000000000000000000000000000000000000000000000000000000000000000000000000000000000000000000000000000000000000000000000000000000000000000000000000000000000000000000000000000000000000000000000000000000000000000000000000000000000000000000000000000000000000000000000000000000000000000000000000000000000000000000000000000000000000000000000000000000000000000000000000000000000005100000000000000000000000000000000000000000000000000000000000000000000000000000000000000000000000000000000000000000000000000000000000000000000000000000000000000000000000000000000000000000000000000000000000000000000000000000000000000000000000000000000000000000000000000000000000000000000000000000000000000000000000000000000000000000000000000000000000000000000000000000000000000000000000000000000000000000000000000000000000000000000000000000000000000000000000000000000000000000000000000000000000000000000000000000000000000000000000000000000000000000000000000000000000000000000000000000000000000000000000000000000000000000000000000000000000000000000000000000000000000000000000000000000000000000000000000000000000000000000000000000000000000000000000000000000000000000000000000000000000000000000000000000000000000000000000000000000000000000000000000000000000000000000000000000000000000000000000000000000000000000000000000000000000000000000000000000000000000000000000000000000000000000000000000000000000000000000000000000000000000000000000000000000000000000000000000000000000000000000000000000000000000000000000000000000000000000000000000000000000000000000000000000000000000000000000000000000000000000000000000000000000000000000000000000000000000000000000000000000000000000000000000000000000000000000000000000000000000000000000000000000000000000000000000000000000000000000000000000000000000000000000000000000000000000000000000000000000000000000000000
#046391:00000000000000005500000000000000000000000000000055000000000000000000000000000000550000000000005500550000000000002500000000000000
#046371:000000000000000000000000000000000000000000000000000000000000000000000000000000000000000000000000000000000000000000000000000000000000000000000000000000000000000000000000000000000000000000000000000000000000000000000000000000000000000000000000000000000000000000000000000000000000000000000000000000000000000000000000000000000000000000000000000000000000000000000000000000000000000000000000000000000000000000000000000000000000000000000000000000000000000000000000000000000000000000000000000000000000000000000000000000000000000000000000000000000000000000000000000000000000000000000000000000000000000000000000000000000000000000000000000000000000000000000000000000000000000000000000000000000000000000000000000000000057000000000000000000000000005700000000000000000000000000000000000000000000000000000000000000000000000000000000000000000000000000000000000000000000000000000000000000000000000000000000000000000000000000000000000000000000000000000000000000000000000000000000
#046320:000000000000000000000000000000000000000000000000000000000000000000000000000000000000000000000000000000000000000000000000000000000000000000000000000000000000000000000000000000000000000000000000000000000000000000000000000000000000000000000000000000000000000000000000000000000000000000000000000000000000000000000000000000000000000000000000000000000000000000000000000000000000000000000000000000000000000000000000000000000000000000000000000000000000000000000000000000000000000000000000000000000000000000000000000000000000000000000000000000000000000000000000000000000000000000000000000000000000000000000000000000000000000000000000000000000000000000000000000000000000000000000000000000000000000000000000000000000000000000000000000000000000000000000000000000000000000000000000000000000000000000000000000000000000000000000000000000000000000000000000000000000000000000000000000000000000000000000000000000000000000000000000000000000000000000000000000000000000000000000000000000000000000000000000000000000000000000000000000000000000000000000000000000000000000000000000000000000000000000000000000000000000000000000000000000000000000000000000000000000000000000000000000000000000000000000000000000000000000000000000000000000000000000000000000000000000000000000000000000000000000000000000000000000000000000000000000000000000000000000000000000000000000000000000000000000000000000000000000000000000000000000000000000000000000000000000000000000000000000000000000000000000000000000000000000000000000000000000000000000000000000000000000000000000000000000000000000000000000000000000000000000000000000000000000000000000000000000000000000000000000000000000000000000000000000000000000000000000000000000000000000000000000000000000000000000000000000000000000000000000000000000000000000000000000000000000000000000000000000000000000000000000000000000000000000000000000000000000000000000000000000000000000000000000000000000000000000000000000000000000000000000000000000000000000000000000000000000000000000000000000000000000000000000000000000000000000000000000000000000000000000000000000000000000000000000000000000000000000000000000000000000000000000000000000000000000000000000000000000000000000000000000000000000000000000000000000000000000000000000000000000000000000000000000000000000000000000000000000000000000000000000000000000000000000000000000000000000000000000000000000000000000000000000000000000000000000000000000000000000000150000000000000000000000000000000000000000000000000000000000000000000000000000000000000000000000000000000000000000000000000000000000000000000000000000000000000000000000000000000000000000000000000000000000000000000000000000000000000000000000000000000000000000000000000000000000000000000000000000000000000000000000000000000000000000000000000000000000000000000000000000000000000000000000000000000000000000000000000000000000555700000000000000000000000000000000000000000000000000000000350000000000000000000000000000000000000000000000000000000057550000000000000000000000000000000000000000000000000000000000000000000000000000000000000000000000000000000000000000000000000000000000000000000000000000000000000000000000000000000000000000000000000000000000000000000000000000000000000000000000000000000000000000000000000000000000000000000000000000000000000000000000000000000000000000000000000000000000000000000000000000000000000000000000000000000000000000000000000000000000250000000000000000000000000000000000000000000000000000000000000000000000000000000000000000000000000000000000000000000000000000000000000000000000000000000000000000000000000000000000000000000000000000000000000000000000000000000000000000000000000000000000000000000000000000000000000000000000000000000000000000000000000000000000000000000000000000000000000000000000000000000000000000000000000000000000000000000000000000000000000000000000000000000000000000000000000000000000000000000000
#047360:000000000000000000000000000000000000000000000000000000000000000000000000000000000000000000000000000000000000000000000000000000000000000000000000000000000000000000000000000000000000000000000000000000000000000000000000000000000000000000000000140000000000000000000000000000000000000000000054000000000000000000000000000000000000000000000000000000000000000000000000000000000000000000000000
#047330:0000003a
#047370:0000000000000022
#0533b0:1323
#053370:00530000
#054370:13
#0543b0:00230000
#054361:00130000
#054321:0023
#054370:0013
#0543b0:00000023
#054350:0000000000000013
#055320:00000053000000000000000000000000
#055350:0023
#0573b0:00130000
#057370:0000002300000000
#057370:0013
#0573b0:0000000000230000
#0573b0:00000013
#057370:0000000000000023
#058320:00130000
#058360:0000002300000000
#058360:0013
#058320:0000000000230000
#0583b1:0000000000130000
#058371:0000000000000023
#059321:13332300
#059361:0053005300000000
#0593b0:00001333
#059370:0000000000530053
#0603b0:3323
#060370:00530000
#060361:1323
#060321:00530000
#061361:13230000
#061321:0053000000000000
#061371:00001323
#0613b1:0000000000530000
#062361:13230000
#062321:0053000000000000
#062371:00001323
#0623b1:0000000000530000
#063321:0000000000132300
#0633b0:0000000000001323
#064320:0000001c00000000
#064340:00000000000000580000000000000000
#064370:000000000000000000000000000000000000000000000000000000000000000000000000000000000000000000000000000000000000000000000000000000000000000000000000000000000000000000000000000000000000000000000000000000000000000000000000000000000000000000000000000000000000000000000000000000000000000000000000000000000000000000000000000000000000000000000000000000000000000000000000000000000000000000000000000000000000000000000000000000000000000000000000000000000000000000000000000000000000000000000000000000000000000000000000000000000000000000000000000000000000000000000000000000000000000000000000000000000000000000000000000000000000000000000000000000000000000000000000000000000000000000000000000000000000000000000000000000000000000000000000000000000000000000000000000000000000000000000000000000000000000000000000000000000000000000000000000000000000000000000000005200000000000000000000000000000000000000000000000000000000000000000000000000000000000000000000000000000000000000000000520000000000000000000000000000000000000000000000000000000000000000000000000000000000000000000000000000000000000000000000520000000000000000000000000000000000000000000000000000000000000000000000000000000000000000520000000000000000000000000000000000000000000000000000000000520000000000000000000000000000000000000000000000000000000000000000000000000000000000000000520000000000000000000000000000000000000000000000000000000000000000000000000000000000000000000000000000000000000000000000220000000000000000000000000000000000000000000000000000000000000000000000000000000000000000000000000000000000000000000000000000000000000000000000000000000000000000000000000000000000000000000000000000000000000000000000000000000000000000000000000000000000000000000000000000000000000000000000000000000000000000000000000000000000000000000000000000000000000000000000000000000000000000000000000000000000000000000000000000000000000000000000000000000000000000000000000000000000000000000000
#064330:000000000000000000000000000000000000000000000000000000000000000000000000000000000000000000000000000000000000000000000000000000000000000000000000000000000000000000000000000000000000000000000000000000000000000000000000000000000000000000000000000000000000000000000000000000000000000000000000000000000000000000000000000000000000000000000000000000000000000000000000000000000000000000000000000000000000000000000000000000000000000000000000000000000000000000000000000000000000000000000000000000000000000000000000000000000000000000000000000000000000000000000000000000000000000000000000000000000000000000000000000000000000000000000000000000000000000000000000000000000000000000000000000000000000000000000000000000000000000000000000000000000000000000000000000000000000000000000000000000000000000000000000000000000000000000000000000000000000000000000000000000000000000000000000000000000000000000000000000000000000000000000000000000000000000000000000000000000000000000000000000000000000000000000000000000000000000000000000000000000000000000000000000000000000000000000000000000000000000000000000000000000000000000000000000000000000000000000000000000000000000000000000000000000000000000000000000000000000000000000000000000000000000000000000000000000000000000000000000000000000000000000000000000000000000000000000000000000000000000000000000000000000000000000000000000000000000000000000000000000000000000000000000000000000000000000000000000000000000000000000000000000000000000000000000000000000000000000000000000000000000000000000000000000000000000000000000000000000000000000000000000000000000000000000000000000000000000000000000000000000000000000000000000000000000000000000000000000000000000000000000000000000000000000000000000000000000000000000000000000000000000000000000000000000000000000000000000000000000000000000000000000000000000000000000000000000000000000000000000000000000000000000000000000000000000000000000000000000000000000000000000000000000000000000000000000000000000000000000000000000000000000000000000000000000000000000000000000000000000000000000000000000000000000000000000000000000000000000000000000000000000000000000000000000000000000000000000000000000000000000000000000000000000000000000000000000000000000000000000000000000000000000000000000000000000000000000000000000000000000000000000000000000000000000000000000000000000000000000000000000005a0000000000000000000000000000000000000000000000000000000000000000000000000000000000000000000000000000000000000000005a000000000000000000000000000000000000000000000000000000000000000000000000000000000000000000000000000000000000000000000000000000000000000000000000000000000000000000000000000000000000000000000000000000000000000000000000000000000000000000000000000000000000000000000000000000000000000000000000000000000000000000000000000000000000000000000000000000000000000000000000000000000000000000000000000000000000000000000000000000000000000000000000000000000000000000000000000000000000000000000000000000000000000000000000000000000000000000000000000000000000000000000000000000000000000000000000000000000000000000000000000000000000000000000000000000000000000000000000000000000000000000000000000000000000000000000000000000000000000000000000000000000000000000000000000000000000000000000000000000000000000000000000000000000000000000000000000000000000000000000000000000000000000000000000000000000000000000000000000000000000000000000000000000000000000000000000000000000000000000000000000000000000000000000000000000000000000000000000000000000000000000000000000000000000000000000000000000000000000000000000000000000000000000000000000000000000000000000000000000000000000000000000000000000000000000000000000000000000000000000000000000000000000000000000000000000000000000000000000000000000000000000000000000000000000000000000000000000000000000000000000000000000000000000000000000000000000000000000000000000000
#0653b0:13
#0663b0:00000023
#065321:13
#065361:0023
#066361:13
#066321:0023
#067320:13
#069320:23
#0673b1:13
#067371:0023
#068371:13
#0683b1:0023
#0693b1:13
#069371:0023
#070321:13
#070361:0023
#071321:13
#071351:00230000
#0713b0:13
#071380:00230000
#072350:13000023
#072320:0000005300000000
#072381:13000023
#0723b1:0000005300000000
#0733b1:13
#073381:0000005300000000
#074381:33
#0743b1:0000005300000000
#0753b1:33
#076381:5352535253525352535253525352535253525352535253525352535223000000
#073320:13
#073350:0000005300000000
#074350:33
#074320:0000005300000000
#075320:33
#076350:53535353535353535353535353532300
#076360:0052005200520052005200520052005200520052005200520052005200000000
