This file was generated by Ched 2.6.2.0.
#TITLE ""
#ARTIST ""
#DESIGNER ""
#DIFFICULTY 0
#PLAYLEVEL
#SONGID ""
#WAVE ""
#WAVEOFFSET 0
#JACKET ""
#REQUEST "ticks_per_beat 480"
#00002: 4
#BPM01: 176
#00008: 01
#TIL00: ""
#HISPEED 00
#MEASUREHS 00
#00512:1414
#00518:00140014
#00510:41
#00614:1414
#0061a:00140014
#00912:1414
#00918:00140000
#0101a:1414
#01014:00140000
#0131a:14
#01314:00140000
#01318:0014
#01312:00000014
#01310:41
#0171a:14140000
#01714:00001414
#01818:14140000
#01812:00001414
#03219:14142400
#03213:0014001400000000
#0331a:14140000
#03312:00001414
#03314:0014000000000000
#03318:0000000000140000
#0331f:21
#0351a:14
#03518:0014
#03514:00140000
#03512:00000014
#03510:41
#03619:14140000
#03616:00000018
#03613:14140000
#03913:00000014
#03919:0014
#03914:18180000
#0491a:1414
#04914:00140014
#04910:41
#05018:1414
#05012:00140014
#0511a:14140000
#05112:00001414
#05114:0014000000000000
#05118:0000000000140000
#0521a:14141400
#05214:0014001400000000
#05712:14
#05714:0000140000140000
#05718:0014000000001400
#0571a:0014
#05710:41
#05812:14
#0581a:0014
#05818:0014000000001400
#05814:0000140000140000
#06112:14
#06118:00140000
#06114:0014
#0611a:00000014
#06214:14
#06212:0014
#0621a:00140000
#06218:00000014
#0001a:14
#00019:0014
#00013:00140000
#00712:00000014
#0081a:00000014
#0111a:14
#01114:14
#01212:00140014
#01218:0014
#01419:14140000
#01512:14
#01518:00140000
#01514:0014
#0151a:00000014
#01613:14140000
#0201a:14
#02014:00140000
#02018:0014
#02012:00000014
#0211a:14140000
#0211f:11
#02214:14140000
#02312:14140000
#02418:14140000
#0271a:14
#02714:14
#02712:0014
#02718:0014
#0281a:1414
#02814:00140014
#0301a:00140000
#03018:0014
#03014:00000014
#0341a:14140000
#03412:00001414
#03414:0014000000000000
#03418:0000000000140000
#04019:14140000
#04013:14140000
#04112:14140000
#0411a:00001414
#04118:0014000000000000
#04114:0000000000140000
#04312:14
#0431a:0014
#04318:00140000
#04314:00000014
#04212:14140000
#0421a:00001414
#04218:0014000000000000
#04214:0000000000140000
#04512:14
#0451a:14
#04518:00140014
#04514:0014
#0461a:14
#04612:14
#04614:00140014
#04618:0014
#0481a:14
#04812:14
#0531a:14
#05412:14
#0551a:14
#05612:14
#05614:0014
#0561a:00000014
#05618:00140000
#06512:14
#06514:00000034
#06510:41
#06614:14
#06712:14
#06814:14
#06818:00000014
#06918:14
#0701a:14
#0291a:14
#02918:0014
#03112:14
#03114:0000001400000000
#03712:00000018
#03814:00000018
#01919:14140000
#01913:00001414
#06312:24
#06314:0024
#06318:00240000
#0631a:00000024
#06413:24
#00314:00240000
#00318:0024
#00312:00000024
#0031a:24
#00419:24
#0485a:54
#04852:54
#0535a:54
#05452:64
#0555a:54
#06552:54
#06654:54
#06752:54
#06854:54
#06958:54
#0705a:54
#0295a:64
#02958:0024
#03154:0000002400000000
#03152:54
#01959:00140000
#01953:00000014
#000320:00000014
#002320:0024
#004390:14000034000034000000000024000000
#007340:14
#007320:0024
#008380:14
#0083a0:0024
#011340:00142400
#011380:00000014
#012380:24
#014390:00001424
#016330:00001424
#0213a0:0014
#021380:00000024
#022340:0014
#022320:00000024
#023320:0014
#023340:00000024
#024380:0014
#0243a0:00000024
#025340:14
#025320:0024
#026380:14
#0263a0:0024
#0293a0:14
#029380:0054
#0303a0:24
#031320:14000024
#031340:0000005400000000
#037360:1828
#038320:1828
#040390:00001424
#040331:00001424
#044321:1424
#0473a1:1434
#0483a1:34
#048381:00000024
#047320:1434
#048320:34
#048340:00000024
#0533a0:14
#053380:00000024
#054320:14
#054340:00000024
#0553a0:14
#055380:00000024
#059340:14240000
#059380:00001424
#060340:14
#060320:0024
#064330:14000034000024000000000000000000
#065320:14
#065340:00000034
#066340:34
#067320:34
#068340:34
#068320:0024
#069380:14
#0693a0:00005434
#0703a0:34
#070380:0000000054343434
#071380:3400000034343400
#072380:34
#0733a0:34
#074380:34
#0753a0:34
#077380:24
