This file was generated by Ched 2.6.2.0.
#TITLE ""
#ARTIST ""
#DESIGNER ""
#DIFFICULTY 0
#PLAYLEVEL
#SONGID ""
#WAVE ""
#WAVEOFFSET 0
#JACKET ""
#REQUEST "ticks_per_beat 480"
#00002: 4
#BPM01: 130
#00008: 01
#TIL00: ""
#HISPEED 00
#MEASUREHS 00
#00019:14
#00113:14
#0201a:14
#02010:41
#04018:2616
#04010:41
#00419:14
#00410:41
#00519:14
#00613:14
#00713:14
#00818:14
#01014:14
#0121a:14
#01210:41
#02418:14
#0641a:14
#06413:0014
#06518:14
#06512:0014
#06618:14
#06614:0014
#0671a:14
#06712:0014
#06818:14
#06814:0014
#06914:0014
#0691a:14
#07018:14
#07013:0014
#05018:14
#04914:14
#05512:0016
#05518:26
#0551f:21
#05618:1616
#05610:41
#0321a:14
#03210:41
#03314:14
#00219:14
#00313:14
#00918:14
#01114:14
#01314:14
#01612:14
#01718:14
#0211a:14
#02212:14
#02312:14
#02512:14
#02814:14
#0291a:14
#03612:14
#03718:14
#04212:1616
#04412:0016
#04418:16
#04618:0016
#04612:16
#04712:16
#0471f:11
#0481a:14
#05112:14
#0521a:14
#05314:14
#05712:16
#05718:0016
#05812:1616
#05918:16
#05912:0016
#06018:16
#06012:0016
#07113:14
#07119:0014
#05418:26
#0143a0:14
#0153a0:24
#018320:14
#019320:24
#026380:14
#027380:24
#030340:14
#031340:24
#0343a0:14
#0353a0:34342400
#038320:14
#039320:34342400
#041380:1626
#043320:1626
#045380:1626
#054380:1626
#061380:1626
#062320:1626
#063350:1636363626000000
#072390:14
#073390:24
