This file was generated by Ched 2.6.3.0.
#TITLE ""
#ARTIST ""
#DESIGNER ""
#DIFFICULTY 0
#PLAYLEVEL
#SONGID ""
#WAVE ""
#WAVEOFFSET 0
#JACKET ""
#REQUEST "ticks_per_beat 480"
#00002: 4
#BPM01: 130
#00008: 01
#TIL00: ""
#HISPEED 00
#MEASUREHS 00
#0121b:13000000000000000013000000001300
#01215:00000000130000130000000000000013
#01218:00000000000013001300001300000000
#01212:23000000000000000013000000000000
#01210:41
#01318:1300000000000013
#01312:0013000000000000
#01317:00000013000000000000130000000000
#01314:00130000
#01316:00000000000000130000000000000000
#0131b:00000013
#01315:00000000000000000000000000130000
#01319:00000000001300000000000000000000
#0141b:13000000000013000000001300000000
#01416:00000000000000130000000000000000
#01419:0013
#01414:00000000000000000013000000000000
#01412:13000000000000000000001300000000
#01415:0000000000000013
#01418:00000000130000000000000000000013
#01515:13000000001300000000000000000000
#0151b:00001300000000130000001300000000
#01518:00130000
#01517:00000000000000000013000000000000
#01512:00001300000000000013000000000000
#01516:00000000000000130000001300000000
#01618:00000000000013001300001300001300
#01615:00000000130000000013000000000013
#0161b:13000000000000000013000000000000
#01612:23000000000000130000000000000000
#01718:13000000001300000000130013000000
#01717:0013000000000000
#01712:00000013000000000000001300000000
#01715:00000000000000130000000000130000
#0171b:0000000000000013
#0191b:00001300000000000013000000000000
#01918:00000000130000000000001300130013
#01915:13000000001300000000130000001300
#01917:00000000000000130000000000000000
#01912:00000000000000130000000013000000
#01916:0013000000000000
#03212:00000013000000000013000000000000
#0321b:13000000000013000000000013000013
#03216:1300000000000013
#03217:00000000000000000013000000000000
#03210:41
#03312:00000000001313000000000000000000
#03317:0000001300001300
#03316:13
#03315:00000000000000000000130000130000
#0331b:13
#03319:0000000000000013
#03313:00000000000000000000000000000013
#0341b:13000000001300000000000000001300
#03418:0013001300000000
#03415:00000000130000130000000000000000
#03417:0000000000130000
#03419:00000013
#03416:0000000000000013
#03412:00000013000000000000130000000000
#03414:00000013
#03517:0013000000000000
#03512:00001300000000000000000000130000
#0351b:0000001300001313
#03516:0000001300000000
#03518:0000000013130000
#03515:26000000260000000013001300000013
#03712:13000000000000000000000000000013
#0371b:00000000001313000000000000000013
#03718:00000000000000000000130000130000
#03715:00000013
#03716:0000001300000000
#03717:13
#0381b:0013000000130000
#03815:00000013001300001300001300130000
#03818:00000000130000130013000013000013
#03812:0000001300000013
#03917:00000000000023230000000013000000
#03914:0000000000000013
#03912:00000000000023230000000013000000
#03919:0000000000000013
#03915:23230000000000000000000000000000
#03918:00000023230000000000000000000000
#0391b:00000000000000000023230000000000
#03916:00000000000000000023230000000000
#04015:0000130000000013
#04012:0000001300131300
#04018:00000000001300000000000013000000
#0401b:23000000000000130000000000000000
#04016:13
#04017:0023000000230000
#04010:41
#04118:13000000130000160000000000000000
#0411b:0013000000001300
#04112:00000000000016000000130000000013
#04117:0000000000130013
#04115:0013000000000000
#04116:00000013
#04217:1300000000000013
#0421b:0013000000000000
#04218:00000000130000130000000000000000
#04215:00000000001300000000000000000000
#04216:0013000000130000
#04219:00000013
#04214:00000013
#04212:0000000000000013
#04318:00000000000000000000000000130000
#0431a:00000000000000000000000000000013
#04313:00000013
#04315:0000000000000013
#04312:1313
#04317:0013
#0431b:0000000000130000
#04316:0000001300130000
#0441b:0000001300131300
#04416:0023000000231314
#04418:00130000
#04415:00000000001300000000000000000000
#04412:23000000000000130000000000000000
#04417:13
#04517:13
#04512:13000000000000000000130000000013
#0451b:00000000131300000000130000000013
#04516:00001400131300000000000000000000
#04515:00000013
#04518:00000000000000000000000000130000
#04618:00001300000000130013001300000013
#0461b:00000000131300000000000000130000
#04615:0000000000130013
#04612:00000013
#04616:00000000131300000000000000000000
#00015:00000000000000000012000000000000
#0001a:0012
#00016:00000000000000120000000000000000
#00019:0000000000120000
#00014:00000000000000000000001200003300
#00018:13
#0001b:00000000130000000000000000000013
#00017:00000000000000000000000000130000
#00415:0013000000000000
#00418:13000013000000000000001300000000
#0041b:00000000000000130000000000000000
#00412:00000000130000000000000000130000
#00410:41
#00512:00000000000000130000000000001300
#00515:0013
#00518:00000000000000000000001300000013
#00612:00000000000000000000000000120000
#00618:00001300000000000000001300001300
#00615:13000013000000000000000000000013
#0061b:00000000130000130000000000000000
#0071c:1200001200000000
#00715:00130000001300000000001300000000
#00718:0013130013000013
#00712:00000012000000120000000000000000
#0111b:00000012
#01117:00000000000000000000000000120000
#01119:0000000000000012
#01115:00000000000013000000001300000012
#01118:00140000001300130000130000000000
#0111c:00000012000000001200000000000000
#01112:12000000130000000012000000000000
#01114:0014000000000000
#02312:00120000000000120000000000001300
#0231a:0012000012000000
#02314:00000012000000000012000000000000
#02318:0000120000121300
#02316:00000000001200000000001200000000
#0231c:1200001200000000
#0231b:0000000000000013
#02315:00000000000000000000000000130000
#00112:00000000001300000000000000001300
#00114:33000000000000000013000000000000
#00117:00130000000000000000000000000000
#00116:00000013000000130000000000000000
#00118:00000000000000000000000013000013
#00119:0000333313000000
#00818:0013000000000000
#00815:00000013000000000000000000000000
#0081b:13000000000000130000000000000000
#00812:00000000130000000000000000130000
#00814:0000000000130000
#00816:0013
#00819:00000000000000000013000000000000
#00817:00000000000000000000001300000000
#00915:00000000000000000000000000000013
#00918:0000000013000013
#00912:00000000000000130000000013000000
#00914:00000000000000000013000000000000
#00917:0000000000130000
#01019:0000000000130000
#01012:13000000000000130000000000000000
#01017:0013
#01014:00000000000000000013000000000000
#01016:00000000000000000000001300000000
#0101c:00000000000000000000000000120000
#01015:0013000000000013
#01018:00000013000000000000000000000013
#0101b:00130000
#01815:00000000000013001300001300001300
#01818:00000000130000000013000000000013
#01812:13000000000000000013000000000000
#0181b:13000000000000130000000000000000
#02118:0000000000000013
#02115:00000000000000000013000000000013
#02117:0000000000130000
#02112:00000013
#0211b:0013
#0221b:13000000130000130000000000000000
#02215:00001300000000000000000000000013
#02212:23000000130000000000000000120000
#02214:0000000000130000
#02216:0013
#02219:00000000000000000013000000000000
#02217:00000000000000000000001300000000
#02218:00000013000000000000000000001300
#0361b:00000013000000000013000000000000
#03612:1300001300001300
#03617:0000000000000013
#03618:13
#03616:00000000000000000013000000000000
#02417:13000000000000130000000000000000
#02412:23000000000013001300001300000000
#02416:0000130000000013
#0241b:00000000000000000013000000000013
#02415:00000000000000000013000000000000
#02516:13000013000000000000000000000000
#0251b:0013000000130000
#02519:00130000
#02514:00000000001300000000000000000000
#02512:00000000000000130000000013000000
#02517:0000001300000000
#02515:0000000000000013
#02518:00000000000000000000000000130000
#02612:00000000000013000000001300000000
#02617:00000000130000130000000000000000
#02614:0013
#02619:00000000000000000013000000000000
#0261b:13000000000000000000001300001300
#02616:13000000000000000000000000000013
#0271b:13001300000000000013000000000000
#02712:00001300000000130000001300000000
#02715:00130000
#02718:00000000001300000000000000000000
#02716:00000000000000000013000000000000
#02717:00000000000000130000001300000000
#02818:00000000000000000013000000001300
#02815:00000000000000000000000000000013
#02816:13000000000000130000000000000000
#0281b:23000000000013001300001300000000
#02812:00000000000000000013000000000000
#02817:00130000
#02918:1300000000131300
#02917:0013000000000000
#02912:00000013000000000000001300000000
#02915:00000000000000000000000000130000
#0291b:00000000000000130000000000001300
#02916:00000000000000130000000000000000
#02919:00130000
#02914:00000000001300000000000000000000
#03112:0013000000000013
#03115:00000000130000000013000000000000
#03118:13000000001300000000000000000000
#03116:00000000000000130000000000000000
#0311b:00000000000000130000000000130000
#03117:0013000000000000
#03018:0000000000000013
#03015:00000000000000000013000000000013
#03017:13000000000000130000000000000000
#03016:00130000
#03012:13000000000013001300001300000000
#0301b:00000000000000000013000000000000
#04712:23000014
#04718:00000000130000130000001300000000
#04715:00000000001300000000130000000000
#0471a:00000000000000000000000000000014
#04716:0000000000000013
#0471f:11
#0471b:23
#04815:0000000013131300
#04812:0014000000000000
#0481a:00000000001400000000000000000000
#04817:00130000000000000000000000000000
#04816:00130000
#04818:00000000000000000013001326000000
#04912:000000130000000000000000003333003333000000000000
#0491b:000000130000003333003333000000000000003333003333
#05018:00130000000000001300000013000000
#05012:13000000140000000000001326000000
#0501a:00000014000000000000000000000000
#05015:00001300000000000013000000000000
#05016:0000001400000000
#0501b:0000000000130000
#05112:00001300000000000000000000140000
#05118:00000000140000000013000000000013
#05114:00000000001400000000000000000000
#0511b:00001300000000130000000000000000
#05115:0000000013130000
#0511a:00000000000000000000001400000000
#05215:1313000013130000
#05218:00130000000000000013001326000000
#05212:00000000001400000000000016000000
#0521a:00000014000000140000000000000000
#05318:00001300001300000000000000000000
#05312:0000001300000000
#0531b:00000000000000130000000000000000
#05315:00130000
#0551b:23130013
#05518:0000001300230013
#05515:00000000001300000000000000130000
#05517:0013000000000000
#05512:00001300000000130000000000000000
#05516:23
#0551f:21
#05615:13130000
#05612:00001300000000130000000013000000
#05618:00001300001300000000000000000000
#05616:00000000000000000000130000000013
#0561b:00000000000000130000130000000013
#05617:00000000000000000000000000130000
#05610:41
#05712:0013000000000000
#05714:00130013
#05715:00000000000000130000000000000000
#05717:0013000000130000
#05719:00130013
#0571b:0000001300000013
#05716:0000000000000013
#05912:23130013
#05916:0013000000000014
#05917:23000013
#0591b:00001300000000130000000000000000
#05918:00000000001300000000000000000000
#05915:0000001300230000
#06016:1314000000000000
#0601b:13000000000000000000130000000013
#06012:00000000131300000000130000000013
#06017:00000000131300000000000000000000
#06018:00000013
#06015:00000000000000000000000000130000
#06115:00001300000000130013001300000000
#06112:00000000131300000000000000130000
#06118:0000000000130013
#0611b:00000013
#06117:00000000131300000000000000000000
#06218:00130013000000130000000000000000
#06215:0013001300000000
#06212:00131300
#0621b:00000000001300001300000000000000
#0701b:00130000
#07018:00000000001300002626000000002626
#07015:0000001300000000
#07012:00000000000000130000002626000000
#07217:00130000
#07212:00262600001300000000000000000000
#0721b:0000001300000000
#02012:13000000130000000000001300000000
#02018:0013000000000000
#0201b:23130000
#02015:00000013000000130000000000000000
#02010:41
#06318:1313000016000000
#06316:0000000000130000
#0631b:00000000130013000000001300000000
#06317:00000000000000000000000000130000
#06312:00000000001300130000000000001300
#06315:00130013000000000000000000000000
#05817:0000001300130000
#05816:00000000000000001300000000130000
#05814:00000000000000000000000000000013
#0581b:13001313
#05819:0000000000000013
#05812:0000000000130000
#0541b:13
#0651b:0000000000000013
#06612:00130000
#06618:00000000001300000000000013001300
#06615:00000000000013000000000000130013
#0661b:00000000000000130000000000000000
#06718:0013000000000000
#06712:0000000000000000000000000000000000333333003333330000000000000000
#0671b:0000000000000000000000000000000000000000000000000033333300333333
#06915:0000001300000000
#0691b:0000000000000013
#06916:00000000000000000000000000000013
#00215:13000000000000000000120000000013
#00219:00000000000000000012000000000000
#00214:0012
#00218:00000000000000120000000000001300
#0021a:00000000000000000000001200000000
#00212:00000014
#0031b:13001313
#00312:00001400000000000013000000130000
#00318:0000121200000000
#00316:00000000001200120000000000000000
#00319:0000000000120012
#00315:00000000000000000000001200000012
#07112:00262600000000000000002626000000
#07118:00000000000000002626000000002626
#07314:00330000000000000000000000000000
#07315:0033000000000000000000000000000000000000000000000000000000000000
#06812:0033333300333333000000000000000000000000000000000000000000000000
#0681b:0000000000000000003333330033333300000000000000000000000000000000
#06816:0000000000000000000000000000000000333333003333330000000000000000
#00458:13
#00452:00130000
#0085b:13
#00852:00130000
#01252:00000000000000000053000000000000
#01255:00000000000000000000001300000000
#0125b:53
#01356:00000000000000530000000000000000
#01359:00000000005300000000000000000000
#01452:63
#0145b:00000000000000000000001300000000
#01556:00000000000000000000005300000000
#0155b:00000000000000000000005300000000
#01552:0000000000000013
#0165b:53
#01655:00000000000000000063000000000000
#01652:00000000000000000000001300000000
#01752:00000053000000000000000000000000
#01758:00000000005300000000000000000000
#01755:00000000000000530000000000000000
#01852:63
#01858:00000000000000000053000000000000
#0185b:00000000000000000000001300000000
#0225b:43
#02252:00330000
#0325b:5300001300000000
#03252:00000053000000000000000000000000
#03356:53
#03357:0000005300000000
#0365b:00000063000000000000000000000000
#03652:63
#0405b:00000000000000530000000000000000
#04056:63
#04057:0000000000130000
#04158:00000000000000160000000000000000
#04255:00000000005300000000000000000000
#04258:00000000000000530000000000000000
#0435b:0000004300000000
#04556:00000000005300000000000000000000
#0455b:00000000005300000000000000000000
#04557:00000000000000130000000000000000
#04552:00000000000000130000000000000053
#02457:63
#0245b:00000000000000000063000000000000
#02458:00000000000000000000001300000000
#02552:00000000000000630000000000000000
#02752:00000000000000000000006300000000
#02757:00000000000000000000006300000000
#0275b:0000000000000013
#02656:53
#02652:00000000000000000000001300000000
#02856:53
#02852:00000000000000000063000000000000
#02855:00000000000000000000001300000000
#02956:00000000000000530000000000000000
#03057:63
#0305b:00000000000000000053000000000000
#03058:00000000000000000000001300000000
#03756:0000006300000000
#03757:63
#04855:00000013
#0485b:00000000000000000000000000000013
#04858:00000056
#04852:0034000000000000
#0485a:00000000004400000000000000000000
#05652:00000000000000130000000000000000
#0565b:00000000000000130000000000000000
#05755:00000000000000630000000000000000
#06057:00000000006300000000000000000000
#06052:00000000006300000000000000000000
#0605b:00000000000000130000000000000063
#06056:00000000000000130000000000000000
#02157:0000000000530000
#00655:13
#0065b:00130000
#01052:13
#0105b:00130000
#02052:33
#0205b:00430000
#03852:0000003300000033
#0385b:0043000000430000
#06358:0016
#05852:0000003300000000
#00558:00000000000000000000006300000000
#00957:0000000000530000
#00158:00000063
#04452:00000000000000630000000000000000
#04457:53
#04456:0000000000130000
#05058:00000013
#05052:00000000140000000000000066000013
#05056:0000001400000000
#05252:00000000003400000000000016000000
#05258:00000056
#0525b:00000000000000000000000000000013
#0525a:00000044000000440000000000000000
#0545b:63
#0595b:00000000000000630000000000000000
#05955:0000000000130000
#05552:00000000000000530000000000000000
#05558:0000000000130000
#00755:00000000000000000000005300000000
#0515a:00000000000000000000004400000000
#05152:00000000000000000000000000340000
#0655b:0000000000000053
#06758:0053000000000000
#06956:00000000000000000000000000000053
#04752:00000034
#0475a:00000000000000000000000000000044
#00255:53
#00252:00000034
#00352:0034000000000000
#000320:0013230000000000
#000350:00000033000000000000000000000000
#000320:00000000000000000000000000130000
#000340:0000000000000033
#000360:00000000000000000000000000000033
#001340:33
#001320:00230000000000000000000000000000
#0013b0:00000013000000230000000000000000
#001390:0000333300000000
#001370:00000000003300000000000000000000
#001380:0000000000133300
#0013b0:00000000000000000000003300002300
#002350:13
#002320:00000000000000230000000000000000
#0023b1:0013230000000000
#002381:00000033000000000000000000000000
#004360:00000000000000130000000000000000
#004330:0033
#004350:00000000000000000033000000000000
#004320:0000000000330000
#004340:00000000000000000000002300000000
#0043b0:00000000000000000000000000130023
#004380:0000000000000033
#004351:00000000000000000000000000000013
#005321:33
#005351:00230000000000000000000000000000
#0053b0:00130023000000000000000000000000
#005380:0033000000000000
#005321:00000013002300000000000000000000
#005351:00330000
#005380:00000000001300230000000000000000
#0053b0:0000003300000000
#005380:00000000000000000013003300000000
#0053b0:0000000000330023
#006360:00000000000000130000000000000000
#006330:0033
#006350:00000000000000000033000000000000
#006320:0000000000330000
#006340:00000000000000000000002300000000
#007350:00000000000000000013003300000000
#007320:0000000000330023
#0083b0:00000000000000000000000000130023
#008380:0000000000000033
#008351:00000000000000000000000000000013
#009321:33
#009351:00230000000000000000000000000000
#0093b0:00130023000000000000000000000000
#009380:0033000000000000
#009321:00000013002300000000000000000000
#009351:00330000
#009380:00000000001300230000000000000000
#0093b0:0000003300000000
#009370:0000000000130000
#0093b0:00000023
#0123b0:13
#012380:00230000
#012320:00000000000000000013000000000000
#012350:00000000000000000000002300000000
#013390:00000000001300000000000000000000
#0133b0:00000000000000230000000000000000
#013361:00000000000000130000000000000000
#013321:0000000000230000
#014321:13
#014351:00230000
#015361:00000000000000000000001300000000
#015321:0000000000000023
#0153b0:00000000000000000000001300000000
#015370:00000000000000000000000000230000
#0163b1:13
#016381:00230000
#016351:00000000000000000013000000000000
#016321:00000000000000000000002300000000
#017321:00000013000000000000000000000000
#017351:00000000002300000000000000000000
#017380:00000000001300000000000000000000
#0173b0:00000000000000230000000000000000
#017351:00000000000000130000000000000000
#017321:0000000000230000
#018321:13
#018351:00230000
#018381:00000000000000000013000000000000
#0183b1:00000000000000000000002300000000
#0203b1:00000000000000130000000000000000
#020381:0033
#0203a1:00000000000000000033000000000000
#020371:0000000000330000
#020391:00000000000000000000002300000000
#020321:00000000000000000000000000130033
#020341:0000000000000033
#021341:33
#021321:00230000000000000000000000000000
#0213b0:00130033002300000000000000000000
#021390:0033330000000000
#021321:00000000001300230000000000000000
#021351:0000003300000000
#021371:0000000000130000
#0213b1:00000023
#024371:13
#0243b1:00230000
#0243b1:00000000000000000013000000000000
#024381:00000000000000000000002300000000
#025321:00000000000000130000000000000000
#025361:0000000000230000
#026361:13
#026321:00230000
#027371:00000000000000000000001300000000
#0273b1:0000000000000023
#027320:00000000000000000000001300000000
#027360:00000000000000000000000000230000
#028361:13
#028321:00230000
#028321:00000000000000000013000000000000
#028351:00000000000000000000002300000000
#029361:00000000000000130000000000000000
#029321:0000000000230000
#030371:13
#0303b1:00230000
#0303b1:00000000000000000013000000000000
#030381:00000000000000000000002300000000
#031381:00000000000000000013002300000000
#031350:00000000000000000000001300230000
#0323b0:13
#032370:00000023000000000000000000000000
#032321:00000013000000000000000000000000
#032361:0000002300000000
#033361:13
#033321:00000023000000000000000000000000
#033371:0000001300000000
#0333b1:0000000000230000
#036321:13
#036361:00000023000000000000000000000000
#0363b0:00000013000000000000000000000000
#036370:0000002300000000
#037370:13
#0373b0:00000023000000000000000000000000
#037360:0000001300000000
#037320:0000000000230000
#040360:13
#040320:0023000000000000
#0403b0:00000000000000130000000000000000
#040370:0000000000230000
#042350:00000000001300000000000000000000
#042320:00000000000000230000000000000000
#042381:00000000000000130000000000000000
#0423b1:0000000000230000
#043371:13
#043391:0023000000000000
#043340:0013000000000000
#043360:00230000
#043391:00130000
#0433b1:0000002300000000
#044371:13
#0443b1:0023000000000000
#044321:00000000000000130000000000000000
#044361:0000000000230000
#0453b1:00000000001300000000000000000000
#045371:00000000000000230000000000000000
#045360:00000000001300000000000000000000
#045320:00000000000000230000000000000000
#045320:00000000000000000000000000000013
#046350:0023000000000000
#046350:00000000000000130023000000000000
#048380:00000016
#0483b0:00000000000000000000000000000023
#0493b0:000000000000133333003333230000000000000000000000
#049370:0000003300000000
#049321:000000000000000000000000133333003333230000000000
#049361:0000000000330000
#0493b0:000000000000000000000000000000000000133333003333
#049370:0000000000000033
#0503b0:23
#050320:00000000000000000000000016000023
#052380:00000016
#0523b0:00000000000000000000000000000023
#053360:000000000000000000000000130000000053330000000000
#053340:000000000000000000000000000000000000000000000000005600003300530000560056005600003300530033000000
#053350:000000000000000000000000005300003300005300000053
#053330:000000000000000000000000000000000000000000000000000000560000005600000000000000560000000000560056
#053320:000000000000000000000000000000000000000000000000000000000056000000000000000000000056005600000000
#054360:23
#0543b1:13
#054381:0000000053000023
#054350:0000000013000023
#055320:00000000000000130000000000000000
#055350:0000000000230000
#057350:00000000000000130000000000000000
#057320:0000000000230000
#058360:13
#058340:0023000000000000
#058391:0013000000000000
#058371:00230000
#058340:00130000
#058320:0000002300000000
#0593b0:00000000000000130000000000000000
#059380:0000000000230000
#060320:00000000001300000000000000000000
#060360:00000000000000230000000000000000
#060371:00000000001300000000000000000000
#0603b1:00000000000000230000000000000000
#0603b1:00000000000000000000000000000013
#061381:0023000000000000
#061381:00000000000000130023000000000000
#061351:00000000000000000000000000000013
#062351:00230000000000000000000000000000
#0643b1:13
#064391:00330000230000000000000000000000
#0643a1:0033000000000000
#064381:00000033000000000000000000000000
#064320:00130000
#064340:00000000003300002300000000000000
#064330:0000003300000000
#064350:00000000000000330000000000000000
#064381:0013
#0643a1:00000000000000000033000023000000
#064391:0000000000330000
#0643b1:00000000000000000000003300000000
#064350:00000013
#064330:00000000000000000000000000330000
#064340:0000000000000033
#064320:00000000000000000000000000000033
#065330:23
#0653b1:1333230000000000
#065391:00330033000000000000000000000000
#065320:0000133323000000
#065340:00000000003300330000000000000000
#0653b1:0000000013230000
#065381:00000000000000000033000000000000
#065350:0000000000132300
#065320:00000000000000000000003300000000
#0653b1:0000000000001333
#065381:00000000000000000000000000330000
#066381:00230000
#066351:0000000013332300
#066331:00000000000000000033003300000000
#067381:1333000000000000
#0673b1:00330000000000002300000000000000
#067320:0000000000000000000000000000000013333333003333332300000000000000
#067360:0000000000330000
#0673b1:0000000000000000000000000000000000000000000000001333333300333333
#067371:0000000000000033
#0683b1:23
#068320:1333333300333333230000000000000000000000000000000000000000000000
#068360:0033000000000000
#0683b1:0000000000000000133333330033333323000000000000000000000000000000
#068371:0000003300000000
#068360:0000000000000000000000000000000013333333003333333300000000000000
#068320:0000000000000000000000000000000000000000330000000000000000003353
#068330:00000000000000000000000000000000000000000000000000000000000000000000000000000000000000000000000000000000330000000000000000530053
#068350:0000000000000033
#069320:5353535353535353230000000000000000000000000000000000000000000000
#069330:00530053005300530053005300530053000000000000000000000000000000000000000000000000000000000000000000000000000000000000000000000000
#068381:0000000000000000000000000000000000000000000000000000000000001353
#068391:00000000000000000000000000000000000000000000000000000000000000000000000000000000000000000000000000000000000000000000000000530053
#069381:5353535353535353330000003300000023000000000000000000000000000000
#069391:00530053005300530053005300530053000000000000000000000000000000000000000000000000000000000000000000000000000000000000000000000000
#0693a1:00000000003300330000000000000000
#069320:0000000013230000
#069381:0000000000132300
#069350:0000000000001323
#069360:00000000000000000000000000000013
#070320:00230000
#071350:0000133323000000
#071320:00000000003300330000000000000000
#0713b1:0000132300000000
#071381:00000000003300000000000000000000
#072360:00000000000000130000000000000000
#073360:33
#073350:0033000000000000000000000000000000000000000000000000000000000000
#073340:00330000000000000000000000000000
#073320:0000002300000000000000000000000000000000000000000000000000000000
