This file was generated by Ched 2.6.3.0.
#TITLE ""
#ARTIST ""
#DESIGNER ""
#DIFFICULTY 0
#PLAYLEVEL
#SONGID ""
#WAVE ""
#WAVEOFFSET 0
#JACKET ""
#REQUEST "ticks_per_beat 480"
#00002: 4
#BPM01: 130
#00008: 01
#TIL00: ""
#HISPEED 00
#MEASUREHS 00
#01215:0000001313000000
#01218:13000000000000130000000000001300
#01212:0000000000000013
#01210:41
#01315:13000013
#0131b:13000000000000130000000013000000
#01312:0000000000000013
#01318:0000000000000013
#01314:00000033000000000000000000000000
#01313:00330000
#0141b:0000000000000013
#01415:13000000000000130000000000001300
#01418:0000001313000000
#01518:13130000
#01515:00000000001300000000000000000000
#0151b:00000000000000130000001300000000
#01512:13001300000000000013000000000000
#01618:00000000000000001300000000000013
#01612:1300000000000013
#0161b:0000001300000000
#01615:00000000000000130000000000000000
#01715:13000013
#01712:00001300000000140000130000001300
#01718:0000000000130013
#0171b:00000013
#0171a:00000014000000000000000000000000
#01716:00000000001400000000000000000000
#0191b:00001300000000130000000000000000
#01918:13000000130000000013001300130013
#01915:00000000001300000000130013001300
#01912:00001300000000130000000000000000
#03318:13000000000000000000000000130000
#03315:00000000001300000000000013000000
#03312:00000000000000000000000000000013
#0331b:0000001300000000
#03418:0013001300001300
#03415:0000130000000013
#03412:00000000000000130000000000000000
#0341b:0000000000130000
#03518:0023000000001300
#03515:0000230000000013
#03512:23
#0351b:0000002300000000
#03718:00000000001300000000000013000000
#03715:13000000000000000000000000130000
#0371b:00000000000000000000000000000013
#03712:0000001300000000
#03918:00230000230000000000230013000000
#03915:23000000000023000023000000001300
#03912:00000023000000000000000000000000
#0391b:00000000000000230000000000000000
#04015:0000131300000013
#0401b:0000130000230000
#04018:00001300000000130000000000000000
#04012:23000013
#04010:41
#04118:13000000130000130000000000000000
#0411b:0013000000000000
#04115:0000001300001300
#04112:0000000000130000
#0421b:0013000000000000
#04218:00000000130000130000000013000000
#04212:0013000000000000
#04215:00000000001300000000000000001300
#04418:0000131300000013
#04412:00130000
#04415:00001300000000130000000000000000
#0441b:23000013
#04515:13000000130000000000000000130000
#04512:00001300000000000000130000000013
#04518:00000000001300000000000013000000
#0451b:00000000000000000000000000000013
#04618:00000000001300000000000000000000
#04615:00000000130000000013333333333333
#04612:0000000000000000000000000000000000000000000000000013000000000000
#00018:13000013000000003300000000000000
#00015:0013130000000000
#00019:00000000000000000033000000000000
#0001a:0000000000330000
#00115:00000000000000000000001300000000
#00118:0000000000130000
#00415:0013000000000000
#00418:00000013000000003300000000000000
#00412:00000000130000000000000000000034
#0041b:23
#00419:00000000000000000033000000000000
#0041a:0000000000330000
#00410:41
#0181b:1300000000000013
#01815:00000000000000001300000000000013
#01812:0000001300000000
#01818:00000000000000130000000000000000
#0321b:13
#03218:00000013000000000000000000000000
#03215:00000000000000000013000000000000
#03210:41
#03115:00130000
#03118:00000000001300000000000000001300
#03112:13000000000000130000000000130000
#0311b:0013000000000000
#03012:13000000000000130000000000001300
#03018:00000000000013000000000000000013
#0301b:0013
#00912:3400000000131313
#00918:00000000000000000000000000000013
#00917:00000000000000000000001300000000
#0091a:00000000003434000000000000000000
#0101b:0013000000000000
#01018:00130000
#01015:23000013000000003300000000000000
#01014:00000000000000000033000000000000
#01013:0000000000330000
#0101a:00000000000000000000000000000034
#02018:0013000000000013
#02015:00000013000000003300000000000013
#0201b:00130000
#02012:23
#02014:00000000000000000033000000000000
#02013:0000000000330000
#02010:41
#0211b:00000000000000130000000000001300
#02115:00000000130013000000001300000013
#02118:13000000001300000000130013000000
#02112:00130000000000000000000000000000
#02212:0013000000000000
#02215:0000130000000013
#02218:23000013000000003300000000000013
#02219:00000000000000000033000000000000
#0221a:0000000000330000
#0281b:13000000000000130000000000001300
#02815:0000001300000013
#02812:0013
#02918:13000013
#02915:0000000000000013
#0291b:0000000000000013
#02912:13000013
#02919:00000033000000000000000000000000
#0291a:00330000
#03612:13
#03615:00000013000000000000000000000000
#03618:00000000000000000013000000000000
#03812:0013130000130013
#03818:0013130000130013
#03815:0000001313001300
#0381b:0000001313001300
#04312:13
#04315:0013000000001300
#04318:0000130000000013
#0431b:0000001300000000
#05315:00001300001300000000000000000000
#05318:00130000
#0531b:0000001300000000
#05312:00000000000000130000000000000000
#05317:000000000000143434343434
#07012:00130000000000000000000000000000
#07015:0000131300000000
#07018:00001300001300000000000000000000
#07019:00000000000000002400002400002400
#07013:00000000000000000024000024000024
#0721b:00130000
#07212:00000000001300000000000000000000
#07218:0000001300000000
#07215:00000000000000130000000000000000
#07219:00240000000000000000000000000000
#07213:0024000000000000
#05518:0000130000000013
#0551b:2300001300001300
#05515:00001300000000130000000000000000
#05512:2300000000230000
#0551f:21
#05615:13000000130000000000000000130000
#05612:0013000000130000
#05618:00000013
#0561b:00000000000000000000000000000013
#05610:41
#0571b:0013000000000000
#05715:00000000130000130000000013000000
#05718:0000001300000013
#05912:2300001300001300
#05915:0000130000000013
#05918:00001300000000130000000000000000
#0591b:2300000000230000
#06018:13000000130000000000000000130000
#0601b:00001300000000000000130000000013
#06015:00000000001300000000000013000000
#06012:00000000000000000000000000000013
#06115:00000000001300000000000000000000
#06118:00000000130000000013333333330000
#0611b:0000000000000000000000000000000000000000000000130000000000000000
#0581b:13
#05818:0013000000001300
#05815:0000130000000013
#05812:0000001300000000
#00215:13000013000000003300000000000000
#00218:0013130000000000
#00214:00000000000000000033000000000000
#00213:0000000000330000
#02512:1300000000000000001300000000000000000000000000000000000013000000
#02515:00001333333333000000000013000000
#02518:1300000000130013
#0251b:00000013
#06212:0000000000000000001300000000000000000000000000000000000000000000
#06215:00133333333333330000000000000000
#07118:0000131300000000
#07115:00000000001300130000000000000000
#07119:00240000000000002400002400002400
#07113:00002400000000000024000024000024
#00512:3400000000000013
#00518:00000000000000000000001300000013
#00515:0000000000131300
#0051a:00000000003434000000000000000000
#0061b:0013000000000000
#00618:00130000
#00615:23000013000000003300000000000000
#00614:00000000000000000033000000000000
#00613:0000000000330000
#0061a:00000000000000000000000000000034
#0071b:0000000000000013
#00715:00000000000000000000001300000013
#00718:0000000000131300
#0071a:34
#00712:00000000003434000000000000000000
#00812:00001300000000000000000000000034
#00815:00130000
#00818:23000013000000003300000000000000
#00819:00000000000000000033000000000000
#0081a:0000000000330000
#04712:0000000000131400
#0471b:00130000
#04715:00000000001300000000000000000013
#04718:00000000000000130000001300000000
#0471a:00000000000000000000000000000014
#0471f:11
#04912:00001300000000000000000000000014
#0491b:0013000000000000
#04915:00000000000000000000000000130000
#04918:0000000000000013
#0491a:000000000000003434343434003434343434000000000000
#05112:00001300130000000000001400000000
#0511b:0013130000000000
#0511a:00000000000000000000000000140000
#05115:00000000000000000013000000000013
#05118:0000000013130000
#05015:00000000000000000013000000000000
#05012:00000000000000000000001300000024
#0501b:0013
#05018:0000140000130000
#0501a:00140000000000000000000024000000
#05014:00000014000014000000000000000000
#04812:0014000000002400
#04815:00000000001300001300130000000000
#0481a:00000000001400000000000000000024
#04818:00001300000000000013001300000000
#05218:13001300000000000013001300000000
#05215:00130000000000000000130000000000
#05212:00000014000000140000000024000000
#0521a:00000000001400000000000000000024
#06312:0000000000130000
#06318:00000000000000000000001300000000
#0631b:00000000000000000000000000130000
#06315:0000000000000013
#0631a:003434343434003434343434000000000000000000000000
#06418:00130000000000000000000000000000
#06412:13
#0641b:00000000333300000000000000000000
#06517:00000000000000000013000000000000
#06514:0000000000130000
#06519:00000000000000000000001300000000
#06516:0000000000001313
#0651b:00000000000000000000000000130000
#06512:0023
#0661b:0000131300000000
#06615:00000000001300130000000000000000
#06618:0000000013130000
#06612:00000000000000000013000000000000
#06614:0000000000001313
#0661a:00000000000000000000000000130000
#06718:1313000013000013
#06712:00130000000000001300000000000000
#06715:0000000000131300
#0671b:00000013
#06812:1313
#06818:13000000000013000013000000140000
#06815:0013130000130000
#0681b:00000000130000000000001300000000
#06814:0000000000001414
#06912:0013
#06918:0000000000130000
#06915:00000000000000000000000013000013
#0691b:0000000000000013
#00318:00000000000000000000001300000000
#00315:0000000000130000
#0111b:0000000000131300
#01116:00000000000000000000001300000000
#01114:00000000000000000000000000130000
#01118:0000000000000013
#01112:00000000003434000000000000000013
#0111a:34
#02312:00000000000000130000130013000000
#02317:00000000000000000000001300000000
#02319:00000000000000000000000000130000
#02314:0000000000000013
#0231b:00130000000000000000000000000013
#02315:13000000001300000000000000000000
#02318:0000131300000000
#02418:0000001300000000
#02415:00000000000000130000000000001300
#0241b:0000000013000013
#02416:13
#02612:0000000013000013
#02618:00000000000000130000000000001300
#02617:13
#02615:0000001300000000
#02715:13130000
#02718:00000000001300000000000000000000
#02712:00000000000000130000001300000000
#0271b:13001300000000000013000000000000
#05412:0013
#05418:0013
#00452:00130000
#0135b:00000000000000530000000000000000
#0155b:00000000000000000000005300000000
#01652:63000000000000000000001300000000
#0325b:53
#03255:00000000000000000053000000000000
#03258:00000053000000000000000000000000
#03358:53
#0335b:0000006300000000
#04058:00000000000000530000000000000000
#0405b:0000000000130000
#04158:00000000000000130000000000000000
#04258:00000000000000530000000000000000
#04455:00000000000000530000000000000000
#04558:00000000005300000000000000000000
#0455b:00000000000000130000000000000063
#04552:00000000000000000000000000000053
#01058:00130000
#01258:53000000000000000000001300000000
#0205b:00130000
#02255:00130000
#03755:63
#03752:0000005300000000
#03652:63
#03658:00000000000000000063000000000000
#03655:00000053000000000000000000000000
#0435b:0000001300000000
#05555:00000000000000630000000000000000
#05552:0000000000130000
#05755:00000000000000630000000000000000
#06055:00000000006300000000000000000000
#0605b:00000000000000000000000000000063
#06052:00000000000000130000000000000053
#05852:0000001300000000
#05658:00000000000000130000000000000000
#07255:00000000000000530000000000000000
#02555:0053000000000000
#02552:0000000000000000002300000000000000000000000000000000000000000000
#04655:00000000000000000053000000000000
#04652:0000000000000000000000000000000000000000000000000023000000000000
#06158:00000000000000000063000000000000
#0615b:0000000000000000000000000000000000000000000000230000000000000000
#06252:0000000000000000002300000000000000000000000000000000000000000000
#06255:00530000000000000000000000000000
#00658:00130000
#00855:00130000
#06556:0000000000000053
#06758:0053000000000000
#06958:00140000
#02752:00000000000000000000006300000000
#02657:63
#02658:00000000000000000000001300000000
#02456:63
#02455:00000000000000000000001300000000
#0285b:53
#02858:00000000000000000000001300000000
#05357:0054
#01455:63000000000000000000001300000000
#0185b:53000000000000000000001300000000
#03052:63
#03055:00000000000000000000001300000000
#05452:0053
#05458:0053
#05958:00000000000000530000000000000000
#0595b:0000000000130000
#000380:00000000000000133300000000000000
#000390:00000000000000000033000000000000
#0003a0:0000000000330000
#0003b0:00000000000000000000002300000000
#000320:0000000000000014
#000330:00000000000000000000000000000034
#001320:34
#001330:00240000000000000000000000000000
#0013a0:0000143400000000
#001390:00000000003400240000000000000000
#001380:0000000000001323
#002350:00000000000000133300000000000000
#002340:00000000000000000033000000000000
#002330:0000000000330000
#002320:00000000000000000000002300000000
#0023a0:0000000000000014
#002390:00000000000000000000000000000034
#0033a0:34
#003390:00240000000000000000000000000000
#003320:0000143400000000
#003330:00000000003400240000000000000000
#003350:0000000000001323
#004380:00000000000000133300000000000000
#004390:00000000000000000033000000000000
#0043a0:0000000000330000
#0043b0:00000000000000000000002300000000
#004320:00000000000000000000000000001434
#005320:34
#005350:00240000000000000000000000000000
#0053a0:00000000143434000000000000000000
#005370:00000000000000240000000000000000
#006350:00000000000000133300000000000000
#006340:00000000000000000033000000000000
#006330:0000000000330000
#006320:00000000000000000000002300000000
#0063a0:00000000000000000000000000001434
#0073a0:34
#007370:00240000000000000000000000000000
#007320:00000000143434000000000000000000
#007350:00000000000000240000000000000000
#008380:00000000000000133300000000000000
#008390:00000000000000000033000000000000
#0083a0:0000000000330000
#0083b0:00000000000000000000002300000000
#008320:00000000000000000000000000001434
#008350:0000000000000000000000000000000000000000000000000000000000000054
#009320:34240000000000000000000000000000
#0093a0:00000000143434240000000000000000
#009370:0000000000000000000000540000000000000000000000000000000000000000
#010350:00000000000000133300000000000000
#010340:00000000000000000033000000000000
#010330:0000000000330000
#010320:00000000000000000000002300000000
#0103a0:00000000000000000000000000001434
#010370:0000000000000000000000000000000000000000000000000000000000000054
#0113a0:34240000000000000000000000000000
#011320:00000000143434240000000000000000
#011350:0000000000000000000000540000000000000000000000000000000000000000
#012380:13
#0123b0:00230000
#012380:00000000000000000013002300000000
#013350:0013000000000000
#013340:00000033000000000000000000000000
#013330:00330000
#013320:00000000002300000000000000000000
#0133b0:00000000000000130000000000000000
#013380:0000000000230000
#014350:13
#014320:00230000
#014350:00000000000000000013002300000000
#0153b0:00000000000000000000001300000000
#015380:00000000000000000000000000332300
#016320:13
#016350:00230000
#016320:00000000000000000013002300000000
#0183b0:13
#018380:00230000
#0183b0:00000000000000000013002300000000
#020350:00000000000000133300000000000000
#020340:00000000000000000033000000000000
#020330:0000000000330000
#020320:00000000000000000000002300000000
#022380:00000000000000133300000000000000
#022390:00000000000000000033000000000000
#0223a0:0000000000330000
#0223b0:00000000000000000000002300000000
#024360:13
#024320:00230000
#024350:00000000000000000013002300000000
#025350:00001333333333230000000000000000
#025320:0000000000000000005300000000000000000000000000000000000000000000
#026370:13
#0263b0:00230000
#026380:00000000000000000013002300000000
#027320:00000000000000000000001300000000
#027350:00000000000000000000000000332300
#0283b0:13
#028370:00230000
#028380:00000000000000000013002300000000
#029380:0013000000000000
#029390:00000033000000000000000000000000
#0293a0:00330000
#0293b0:00000000002300000000000000000000
#029350:00000000000000130000230000000000
#030320:13
#030360:00230000
#030350:00000000000000000013002300000000
#031380:00000000000000000013002300000000
#0323b0:1300002300000000
#032380:00000033000000000000000000000000
#032350:00000000000000000013000000000000
#032320:0000000000003323
#033380:13
#0333b0:00000023000000000000000000000000
#0333b0:0000001300000000
#033380:0000000000230000
#036320:1300002300000000
#036350:00000033000000000000000000000000
#036380:00000000000000000013000000000000
#0363b0:0000000000003323
#037350:13
#037320:00000023000000000000000000000000
#037320:0000001300000000
#037350:0000000000230000
#040380:00000000000000130000000000000000
#0403b0:0000000000230000
#041380:0000000000000013
#042380:23
#042380:00000000000000130000000000000000
#0423b0:0000000000230000
#044350:00000000000000130000000000000000
#044320:0000000000230000
#045380:00000000001300000000000000000000
#0453b0:00000000000000230000000000000000
#045320:00000000000000000000000000000013
#046350:0023000000000000
#0453b1:00000000000000000000000000000013
#046381:0023000000000000
#046351:00000000000000130033333333333333
#046321:0000000000000000000000000000000000000000000000000053000000000000
#047351:23
#0493a1:000000000000143434343434003434343434240000000000
#049361:0034
#053371:000000000000143434343434
#0543a1:24
#054321:0013
#054351:0000000000000023
#054380:0013
#0543b0:0000000000000023
#055350:00000000000000130000000000000000
#055320:0000000000230000
#056380:00000000001300230000000000000000
#057350:00000000000000130000000000000000
#057320:0000000000230000
#059380:00000000000000130000000000000000
#0593b0:0000000000230000
#060350:00000000001300000000000000000000
#060320:00000000000000230000000000000000
#0603b0:00000000000000000000000000000013
#061380:0023000000000000
#060321:00000000000000000000000000000013
#061351:0023000000000000
#061381:00000000000000130033333333332300
#0613b1:0000000000000000000000000000000000000000000000530000000000000000
#061351:00000000000000000000000000000013
#062351:00333333333333332300000000000000
#062321:0000000000000000005300000000000000000000000000000000000000000000
#0633a1:143434343434003434343434240000000000000000000000
#063361:00340000
#0643b1:00000013333300000000000000000000
#064381:0000002300000000
#064321:0000000014343424
#064331:00000000000000000034003400340000
#0653a1:1434342400000000
#065391:00340034003400000000000000000000
#065361:0000000000000013
#066321:0023000000000000
#067381:0013000000000000
#0673b1:0000002300000000
#068381:00000000000000000000000000000014
#068391:0000000000000000000000000000000000000000000000000000000000000054
#069371:54545454000000000000000000000000
#069391:0054005400540054000000000000000000000000000000000000000000000000
#069381:00240000
#072351:00000000000000130000000000000000
#073321:23
