This file was generated by Ched 2.6.2.0.
#TITLE ""
#ARTIST ""
#DESIGNER ""
#DIFFICULTY 0
#PLAYLEVEL
#SONGID ""
#WAVE ""
#WAVEOFFSET 0
#JACKET ""
#REQUEST "ticks_per_beat 480"
#00002: 4
#BPM01: 130
#00008: 01
#TIL00: ""
#HISPEED 00
#MEASUREHS 00
#0121b:13000000000000001313000000001300
#01216:00130000
#01218:00000000000013000000000000000013
#01212:23001300000000130013000000000000
#01217:00001300000000000000001300000000
#01215:0000000000130000
#01210:41
#0131b:13
#01312:0000000013000000000013000000000000130000000000000000000014000000
#01316:00000013000000130000000000140000
#01314:00130000
#0131a:00000014
#01319:0000000000130000
#01318:00000000001300000000000000000000
#01315:13
#0151b:00000000001300000000001300000000
#01516:00000000000000000013001300000000
#01518:00130000
#01515:00000000001300000000000000000000
#01517:00000000000000130000000000001300
#03212:1300001300001300
#03217:13000013000000000013000000000000
#0321b:0000000000000000001300000000000000000000001300000000000000001300
#03213:00000000000000000013000000000000
#03216:0000001300000000000000000000000000000000000000000000000013000000
#03215:00000000001300000000000000000000
#03210:41
#03317:13000000001300000000000013130000
#0331b:00000000000013000000130013130000
#03312:13000000001300000000130000000000
#03316:00000013000013000000000000000000
#03416:13001300000000000000000000130000
#0341b:00000000000013130000000000001300
#03417:00000000000000130000130000000000
#03419:00130013
#03414:00000000001300000000001300000000
#03412:00000013000000000000000000000000
#03413:0000000000000013
#03518:000000000000160000000000260000000000000000000000000000000000000013000000130000000000000000130000
#03512:19002600160023000013000000130000
#03515:000000000000000000190000000000130013000000130000
#0351b:23000000000000000013000000000000
#03712:00000000000013000000001300000013
#0371b:1300000000000000000013000000000000000000000000130000000000001300
#03716:13000000001300000000000000000000
#03717:00000013000013000000000000000000
#03715:0000000000130000
#03718:0000000000130000
#0381b:00001300001300000000130000130000
#03818:00000013000000001300001300000000
#03815:00001600130016130000160013001600
#03812:00000000000013000013000000001300
#04016:0000000023000000130000000000000000130000000000000000000000001300
#04018:00000000000013130000000000000000
#04012:00000000000013130000230000130000
#0401b:2300130000131313
#04017:13000013
#04010:41
#04119:13
#04116:0000001300130000
#04112:00000000000000130000000000000000
#0411b:0000001300000000
#04113:13
#04117:00000000000000130000000000000000
#0421b:00001300000000130000000013000000
#04216:00001300131300130000000000130000
#04214:00000000000000000000000000000013
#04212:13000000001300000000130000000000
#04219:0000000000000013
#04213:00000013
#00014:0000000000120000
#0001c:00000000000000120000000000000000
#00016:00000012000000001200000000000000
#0001a:00000000000000000012000000000000
#00018:00001200000000000000001200000000
#00012:00000012
#00019:12000000000000000000000000000012
#0001b:00000000120000000000000000120000
#00013:00120000
#00015:1200000000000012
#00418:0013130000000000
#00415:00000013000000000000000000000000
#00412:23000000130000000000001300000000
#00419:0000000000130000
#00416:00000000000000130000000000000000
#0041b:1313
#00414:00000000000000000013000000000000
#00417:00000013
#00410:41
#01113:00000000000000000000130000130000
#01118:00141400001300000000130000001300
#01115:00000000000013000013000000000013
#01112:13000013000000001300000000000000
#01114:0000001400000000000000000000000000000000000000000000000000000000
#0111b:00130000
#0111a:0000001300001300
#01117:00000000000000130000000000000000
#01116:00000000000000000000001300000000
#00819:0013000000000000
#00817:00000012000000000000000000000000
#0081b:13231300
#00814:00130000
#00818:00000000000000130000130000001300
#00815:00000000000000000013000013000013
#00812:23000000000000000000001300130000
#05313:0000000014000000000000333333000000000000000000000000000000000000
#05319:0014001300000000
#0531b:00130000
#05315:0000000000000000003300000000000000000000000000000000000000000000
#05314:00000000003300000000000000000000
#05312:0000000000000000000000000000333300000000000000000000000000000000
#0611b:0013000000130000
#06112:0000000000000000000013000000000000130000000014000000000000001300
#06116:00000000000000130000000014140000
#0611a:0000000000000014
#06117:00001300131300000000000000000013
#0621b:0013000000000000000000000000000000000000000000000000000000000000
#0621a:00000014000000002400000000000000
#06216:00000000141400140000000000000000
#06212:0000001424000000
#06214:0013000000000000
#06518:00000000000000000013001300000013
#06515:0000003300130013
#06512:00000016
#0651b:00000000000013002300000000130000
#06514:00000000003300000000000000000000
#06516:00000000000000330000000000000000
#0721b:00130000
#07215:00000000001300000000000000000000
#07218:00262600000013000000000000000000
#07212:0000001600000000000000000000130000000000000000000000000000000000
#07216:00000013
#04312:1313
#04317:0013
#04316:0000001300000000
#0431b:0000000000130000
#04314:00000000000000000000000000140014
#04318:0000000000001414
#0391a:0014000000000000000000000000000000000000000000000000000000000000
#03912:0000000000000014000000002600260000000016000000001300000000000000
#03918:0000000000000000000000000016000000002600260000000000130000000000
#0391b:00000013
#03915:00000000000000000000000000130000
#03916:24240024240000000000000000000000
#0361b:1300001300001300
#03612:0000000000000000001300000000000000001300000000000000000013000000
#03619:00000000000000000000000000000013
#03617:0000001300000000000000000000000000001300000000000000000013000000
#03616:13000013000000000000000000000000
#03618:00000000001300000000000000000000
#04417:0000000023000000130000000000000000130000000000000000000000001300
#04415:00000000000013130000000000000000
#0441b:00000000000013130000230000130000
#04412:2300130000131313
#04416:13000013
#04514:13001800181800180000000000000000
#0451b:00000000000000000000000013130000
#04517:00000000000000000000130000130013
#04512:00000000000000000000000000000013
#0451a:13
#04612:00000000131300000000000013000000
#04616:00001300001300130014001400140014
#0461b:00000000000000130000130000001300
#04817:0000000000000000000000000000000000000000000000000000001300000000
#04812:000000180000000000000000000000180000000000000000000000001600000000000000130000000000000000000000
#04816:0018180000000000
#04815:000000131300
#04818:000000000000000000000000001300160013000000000000
#0481b:00000023
#05016:0000000000001500000000000000000000000000000000000000001300000000
#05015:000000150000130013000000
#05018:000000000000000000000000001300000013000000000000
#05012:000000000000000000130000000000000000130000000000000000001300000000000000230000000000000000000000
#0501b:0000130000131300
#05017:00130000000013000000000000000000
#05013:0033000000000000000000000000000000000000000000000000000000000000
#05014:33
#05212:0000000000001400000000000000140000000016000014000000001300000000
#05217:0000000000000000000000000000000000000000000000000000001300000000
#05216:000000001300000000140000000000140000000000140000000000000000000000000000230000000000000000000000
#05218:00000000000000000016160000000000
#0521a:00000000001400000000000000000000
#05214:13
#05219:001300000000000000000000000000000000000000000000
#0521b:0013000000002300
#00116:00000000000000000012000000000000
#00115:0000000000000012
#00117:00000000000000000000000000000012
#0011a:00000000000000000012000000000000
#00118:00000012
#0021a:0000000000120000
#00212:00000000000000120000000013000000
#00218:000000000000000000120000000000000000000000000000120000000000000000000000000000000000000000001300
#00214:00000000000000000012000000000000
#00216:00001200000000000000001200000000
#0021b:0000120000001313
#00215:120000000000000000000013
#00213:00120000
#00219:12
#00319:00000000001300000000000000001300
#00316:00000000000000000000000000000013
#00317:00000013
#00318:0000000000130000
#00314:00000000001300000000000000130000
#00315:00000000000000000013000000000000
#00312:13000000000000001300001300000000
#0031b:0013000013000000
#00517:00000000000000000013000000000000
#00515:0000001300000013
#00518:00000000000000130000000000000013
#00512:00130013
#00519:00000000001300000000000000000000
#00514:0013
#0051b:00000000000000000000000000130000
#00615:0013130000000000
#00618:00000013000000000000000000000000
#0061b:23000000130000000000001300000000
#00614:0000000000130000
#00617:00000000000000130000000000000000
#00612:1313
#00619:00000000000000000013000000000000
#00616:00000013
#00716:00000000000000130000000000000000
#00718:0000000000001313
#00715:00000000000000000000000000130013
#00714:00000000001300000000000000000000
#00719:0000001300000000
#0071b:0000130000130000
#00712:00000000000000000000001300000000
#00918:00000000000000000013000000000013
#00915:0000000000001313
#0091b:0000000000000000000000000000000000000000001300000000000000000000
#01014:0013000000000000
#01017:00000012000000000000000000000000
#01012:13231300
#01019:00130000
#01015:00000000000000130000130000001300
#01018:00000000000000000013000013000013
#0101b:23000000000000000000001300130000
#07015:0000000000000000000000001300000000130000000023002300000000130000
#0701b:00000000130000000000000000002323
#07018:160000000000000016000000000000001600000000000000000000000000130000000000000000000000000000000000230000000000230000000000000000000000000000130000000000000000000000000000000000000000000000000000
#07012:000016000000160000001600000000000000000000130000000000000000000000000000000000000000000000000000
#07118:0000001300000000000000000000000000140000000024002400000000160000
#07114:0000000000000000000000000000000024002400000000140000000000000000
#0711b:00000000130000130000000000000000
#07112:00232300000000000000000000002626
#0731b:13
#07315:001300000000000000000000000000000000000000000000
#07318:001300000000000000000000
#07312:0013000000000000
#0661b:13000000000000001300001300000000
#06615:00130013000000130000130013000000
#06618:00001300160013000013000000130013
#06612:13000000001300001300000000001300
#06915:0013000000000000
#06914:00130000
#06913:0000001300000000
#06918:00000000001400000000000000000000
#06917:00000000000000140000000000000000
#06919:00000014000000000000000000000000
#0691a:00140000000000000000000000000000
#06912:0000000013001313
#06916:00000000000000000000000000000014
#0691b:0000000023130013
#0631b:130013001300000000000000230000130000000000000000
#06315:000013000000130000001300000000000000000000000000000000160000000000160000000000000000000000000000
#06318:000000000000130013001300000000000000130000130000
#06312:000000000000000000000000000013000000130000001300000000000000000000000000000000160000000000160000
#06415:00130000000000130000000000000000
#06418:16000013001300000000000000003300
#06412:0013161300000013
#0641b:0013001300000000
#06417:00000000000000000000000000000033
#06419:00000000000000000000000000330000
#05412:0013
#0541b:0013
#01412:13000000000000001313000000001300
#01417:00130000
#01415:0000001300000000
#0141b:13001300000000130013000000000000
#01416:00001300000000000000001300000013
#01418:0000000000130000
#02012:00001300000013130000001300000000
#02018:00130013000013000000000000000000
#02015:13130000
#02016:00000000000000000013000000130000
#02019:0000000000000013
#02014:00000000000000000000000000000013
#0201b:23130000
#02010:41
#02112:00140000001400001313000000000000
#02116:0000000013000000000000001300000000000000001300000000000000000000
#02117:13131313
#0211a:00000014000000140000000000000000
#0211b:00000000000000000000130000000013
#02115:0000000000000013
#0221b:00001300000000131300001300000000
#02215:00130013000013000000000000000000
#02218:13130000
#02217:00000000000000000013000000130000
#02214:0000000000000013
#02219:00000000000000000000000000000013
#02212:23130000
#02317:0013001300000000
#0231a:00140000001400000000000000000000
#02316:1300000000000000130000000000001400000000000000000000000000000000
#02312:00000014000000141400000013000000
#02318:00000000000000000013000000130000
#0231b:00000000000000000000001300000013
#02315:0000000000130013
#02416:1313000000000000
#0241b:23000000130000130013000000000000
#02415:00000000000013001600001300000016
#02412:00001300000000000013000000001300
#02417:0000000000130000
#02512:13000000001300000000130016000000
#0251b:13001300001300130000000000000000
#02515:00000016160000000000000000160000
#02518:0000000000000016
#02517:0000000000000000000000000000000000130000000000000000000000000000
#02617:1313000000000000
#02612:13000000130000130013000000000000
#02618:00000000000013000000001300000000
#0261b:00001300000000000013000000001300
#02615:00000000000000001600000000000016
#02616:0000000000130000
#0271b:13000000001300000000000000000000
#02712:13001300001300130000001300000000
#02715:00000016160000000000000000000000
#02717:00000000000000000013001300000000
#02716:0000000000000013
#01912:000000000000000000000000000000000000000000000000000000000000140000001400000000000000000000130000
#01916:000014
#0191b:00000000001300000000000013000000
#01915:00000000001300000000000000130000
#01918:0000130000000013
#01917:00000000000000130000000000000000
#0161b:13000000000000001313000000001300
#01616:00130000
#01618:00000000000013000000001300000013
#01612:23001300000000130000130000000000
#01617:0013000000000000
#01615:00000000000000000013000000000000
#0171b:13
#01712:0000000013000000000013000000000000130000000000000000000014000000
#01716:00000013000000130000000000140000
#01714:00130000
#0171a:00000014
#01719:0000000000130000
#01718:00000000001300000000000000000000
#01715:13
#01812:13000000000000001313000000001300
#01817:00130000
#01815:00000000000013000000001300000000
#0181b:13001300000000130000130000000000
#01816:00001300000000000000000000000013
#01818:00000000000000000013000000000000
#02816:1313000000130000
#0281b:23000000130000130013000000000000
#02815:00000000000013001600000000000016
#02812:00001300000000000013000000001300
#02818:00000000000000000000001300000000
#02912:13000000001300000000130016000000
#0291b:13001300001300130000000000000000
#02915:00000016160000000000000000160000
#02918:0000000000000016
#02917:0000000000000000000000000000000000130000000000000000000000000000
#03017:1313000000130000
#03012:13000000130000130013000000000000
#03018:0000001300000000
#0301b:00001300000000000013000000001300
#03015:00000000000000001600001300000016
#0311b:13000000001300000013000013000013
#03112:13001300001300130000000013000000
#03115:00000016160000000000001300001300
#03118:00000000000000000000130000130000
#05512:24000000130000130000230013000000
#0551b:0000001300130000
#05518:00000000000000130000000016001300
#05516:0000000024000000000000000000000000130000000000000000000000000000
#05515:00000000000013000000000000130000
#05517:00140000130000000000000000000000
#05514:00000000000000000000000000000013
#0551a:24
#0551f:21
#05616:00000000001300000000000000000000
#05615:00000013
#05617:00000000130000130000000000000000
#05612:00000000130000000000130000130000
#0561b:00000000001300000000001300000013
#05618:0000000000130013
#05610:41
#05718:0013000000000000
#05712:1300131300130000
#0571b:00000000130000130000000013000000
#05716:00000000000000130000000000130000
#05714:00000000000000000000000000000013
#05715:00000013000000000000000000000000
#05719:0000000000000013
#05717:0000001300000000
#05713:00000013
#05812:130000000000000000141414
#05817:13130000
#05816:0013001300000000
#05814:000000000000141414000000
#05818:000000000000000000000000001400140014000000000000
#0581a:000000000000000000000000000000000000001400140014
#0591b:00000000130000130000230013000000
#05912:2400001300131600
#05915:00140000000000130000000000001300
#05917:0000000000000000000000000000000000130000000000000000000000000000
#05918:00000000000013000000000000130000
#05916:0024130000000000
#05919:00000000000000000000000000000013
#06017:00000000001300000000000000000000
#06016:00000000130000130000000000000000
#0601b:0000130000130013
#06012:00000000001300000000001300000013
#06015:00000000000000000000130000130000
#06018:00000000000000000000000013130000
#06816:000000000000000000000000000000000000000000000000000013000000000000000000000000000000000000130000
#0681b:0013
#06819:003300000000001300000000
#06814:000000003300000000000000000000130000000000000000
#06817:000000000000000013130000
#06812:000000000000000000000000000000000013000000000000
#0681a:003300000000000033000000000000000000000000000000
#06813:000000000033000000000033000000000000000000000000
#06818:000000000000003300000000000000000000000000000000
#06815:000000000033000000000000
#04716:00000000000013130000000018000000
#04712:23000000140000000013130000000018
#0471a:0000140000000014
#04717:00000000000000000013130000000000
#0471b:23000000000013130000000000000000
#0471f:11
#0511a:00000000000000000000001400000000
#05116:000000000000000000000000000000000000000000001300000000000000000000140000000000140000000000000000
#05112:000000130000000000000000130000000000000000000000000000000000130000000000000000140000000013000000
#05117:000000000000000000000000000013000000000000000013
#05114:000000000000000000000000000000330000000000000000000013000000000000000000000000000000000000000000
#0511b:000000130000000000000000130000000000000013000000000000000000000000000000000000000000000000000000
#05118:0013000000000000
#05115:0000000000001300000000333300000000000000000000000000000000000000
#05119:0013
#05113:0000000000000000003300000000000000000000000000000000000000000000
#04918:0000160000000000000000330000000000000000000000000000003300000000
#04912:00001600000000131300000000000000
#04916:0000000000000000130000000000003300000000000013000000000000001300
#0491b:00000000130000000000001300000000
#04917:0000000000000000000000003333330000000000000000000000130000000000
#04919:00000000003300000000000000003300
#0491a:0000000000000000003300000000000000000000000000000000000000330000
#04913:0000000000000000000000000000000000000000000000000033000000000000
#04914:00000033
#04915:0000000000000000000000000000000000000000000000330000000000000033
#06717:0013000000000000
#0671b:13000000001300000000000000000000
#06716:00000000001300000000000000000000
#06712:0013002423000000
#06714:240000000000000000000000000000000033000000003300
#0671a:000000000000000000240000000000000000000000000000000000003300000000000000000000003300000000000000
#06718:000000000000000000000000003300000000000000000000
#06713:000000000000000000000000000000003300000000000033
#06719:000000000000000000000000000000000000003300000000
#0085b:13
#00854:00130000
#01252:00000000000000000053000000000000
#0125b:53
#01257:00002300000000000000001300000000
#01255:0000000000230000
#01256:00130000
#01356:00000000000000530000000000000000
#01358:00000000005300000000000000000000
#01352:0000000000000000000000000000000000230000000000000000000000000000
#01556:00000000000000000000005300000000
#0155b:00000000000000000000005300000000
#01555:00000000006300000000000000000000
#01557:0000000000000043
#03357:63000000000000000000000000630000
#03352:33
#0335b:00000013000000000000000000000000
#03356:0000001300000000
#04052:00000000000000630000330000000000
#04056:0000000000000000000000000000000000230000000000000000000000000000
#04057:53
#04152:00000000000000130000000000000000
#0425b:00000000000000530000000000000000
#03256:0000002300000000000000000000000000000000000000000000000000000000
#03257:00000063000000000053000000000000
#0325b:0000000000000000002300000000000000000000002300000000000000000000
#03252:6300003300000000
#03457:00000000000000630000000000000000
#03552:39360000
#03558:0046000000000000
#03555:0000004900000000
#0365b:5300004300000000
#03652:0000000000000000002300000000000000006300000000000000000000000000
#03657:0000002300000000000000000000000000000000000000000000000000000000
#03656:00000053000000000000000000000000
#03756:53
#0375b:4300000000000000000000000000000000000000000000230000000000000000
#03757:0000001300000000
#03752:00000013000000000000002300000000
#03755:0000000000530000
#03758:0000000000530000
#04356:0000005300000000
#04352:33332300
#0435b:0043004300000000
#0445b:00000000000000530000430000000000
#04457:0000000000000000000000000000000000230000000000000000000000000000
#04456:63
#04554:00000000000000180000000000000000
#04552:00000000000000000000000000000033
#0465b:00000000000000430000000000000000
#04656:00000000000000530000000000000000
#04857:0000000000000000000000000000000000000000000000000000002300000000
#0485b:00000000000000000000000053000043
#04856:0048000000000000
#04852:00000000003800000000000033000000
#05056:0000000000000000000000000000000000000000000000000000002300000000
#05052:00130000000000000000000063000033
#0505b:00000043
#05252:0000000000003400000000000000340000000000000000000000002300000000
#05257:0000000000000000000000000000000000000000000000000000002300000000
#05256:00000000003400000000000053000043
#0525b:00000000000000000000000053000043
#00156:00000000000000000062000000000000
#00557:00000000000000000053000000000000
#00756:00000000000000530000000000000000
#00958:00000000000000000063000000000000
#0095b:0000000000000000000000000000000000000000002300000000000000000000
#01052:13
#01059:00130000
#07256:00000023
#07252:00000000000000630000000000000000
#07258:0016000000000000
#06555:0000000000130013
#06658:00001300000013000000000000130000
#06655:0000000000130000
#06956:00000000000000000000000000000014
#06952:0053
#0695b:0000000000530000
#07058:00000000000000000013000000000000
#0705b:00000000000000000000000000000013
#07055:00000013
#07152:00001300000000000000000000000016
#07154:00000000000000000014000000000000
#07158:00000014
#05452:0063
#0545b:0063
#01452:63
#01456:00002300000000000000001300000000
#0145b:00000000000000000063000000000000
#01458:0000000000230000
#01457:00130000
#00458:00530000
#00452:00130000
#0045b:13
#00655:00630000
#0065b:00130000
#00652:13
#02152:00000000000000000063000000000000
#02156:0000000000000000000000000000000000000000002300000000000000000000
#02055:33330000
#02258:43430000
#02456:63
#02457:0000000000230000
#02452:0023000000000000
#0245b:00000000130000000063004300000000
#02455:00000000000000000000004300000000
#0255b:00000000000000630000000000000000
#02552:00000000006300000000000000000000
#02557:0000000000000000000000000000000000230000000000000000000000000000
#02657:53
#0265b:0023000000000000
#02658:00000000000000000000003300000000
#02656:0000000000230000
#02652:00000000130000000053003300000000
#0275b:00000000005300000000000000000000
#02752:00000000000000000000006300000000
#02757:00000000000000000000006300000000
#02756:0000000000000033
#0165b:53
#01657:0023000000000000
#01658:00000000000000000000001300000000
#01655:00000000000000000063000000000000
#01652:0000000000230000
#01656:00130000
#01756:00000000000000530000000000000000
#01758:00000000005300000000000000000000
#01752:0000000000000000000000000000000000230000000000000000000000000000
#01852:63
#01856:0023000000000000
#01855:00000000000000000000001300000000
#01858:00000000000000000053000000000000
#0185b:0000000000230000
#01857:00130000
#01955:00000000006300000000000000000000
#02856:6300000000230000
#02852:00002300000000000053003300000000
#02858:00000000000000000000003300000000
#0285b:00130000
#0295b:00000000000000630000000000000000
#02952:00000000006300000000000000000000
#02957:0000000000000000000000000000000000230000000000000000000000000000
#03057:5300000000230000
#0305b:00002300000000000063004300000000
#03055:00000000000000000000004300000000
#0315b:00000000005300000000000000000000
#05552:00000000000000630000330000000000
#05556:0000000000000000000000000000000000230000000000000000000000000000
#05557:00240000000000000000000000000000
#0555a:5444000000000000
#0575b:00000000000000530000000000000000
#05852:33330000
#0585b:0043004300000000
#05856:0063000000000000
#05857:63630000
#05656:00000000006300000000000000000000
#05652:00000000000000130000000000230000
#05657:00000000000000130000000000000000
#0565b:00000000000000000000002300000023
#05658:0000000000630063
#05655:00000063
#0595b:00000000000000530000430000000000
#05957:0000000000000000000000000000000000230000000000000000000000000000
#05955:00240000000000000000000000000000
#05952:6434000000000000
#06057:00000000005300000000000000000000
#06056:00000000000000130000000000000000
#0605b:00000000000000130000000000002300
#06052:00000000000000000000002300000013
#06055:0000000000530000
#06058:00000000000000000000000000530000
#06152:0000000000000000000000000000000000230000000000000000000000001300
#06156:00000000000000530000000000000000
#06157:00006300006300000000000000000053
#0615b:00000000000000130000000000000000
#0625b:0023000000000000000000000000000000000000000000000000000000000000
#0625a:0044
#06252:0034
#03855:0036004600360046
#03958:00000000000000000000000000230000
#0395b:00000063
#03955:00000000000000000000000000230000
#03952:00000053
#0115b:00630000
#0115a:0000006300000000
#01158:00000000006300000000000000000000
#01157:00000000000000630000000000000000
#01152:0053
#01155:00000000000000000053000000000000
#01153:0000000000530000
#01156:00000000000000000000005300000000
#06856:00000000000000000000000000000013
#06857:00000053
#0035b:0013000000000000
#00352:53
#04756:00000048
#04752:00000000000000000000000000000038
#0515a:00000000000000000000004400000000
#05156:00000000000000000000000000440000
#05152:00530000
#04952:00000000000000001300000000130000
#0495b:00000000530000000000001300000013
#04956:00000000000000000000005300000053
#04957:00000000000000000000000000630000
#06754:34
#0675a:00000044000000000000000000000000
#06752:0000003400000000
#06458:16
#06452:00160000
#0025b:00000013
#001320:12
#001340:00320000000000000000000000000000
#001360:0022000000000000
#0013c1:0012000000000000
#0013a1:00000032000000000000000000000000
#001381:00220000
#001320:00120000
#001340:00000000003200000000000000000000
#001360:0000002200000000
#0013c1:0000001200000000
#0013a1:00000000000000320000000000000000
#001381:0022
#001361:00000000000000000012000000000000
#001321:00000022
#003321:13
#003361:0023000000000000
#004381:00130000
#0043b1:00000000000000230000000000000000
#004321:00000000000000000000000000132300
#004380:00000000000000000000000000001323
#004351:00000000000000000000000000000013
#005351:23
#0053b0:1333230000000000
#005380:00330033000000000000000000000000
#005370:00000000000000000013000000000000
#0053b0:00000023
#006350:00130000
#006320:00000000000000230000000000000000
#0063b0:00000000000000000000000000132300
#006351:00000000000000000000000000001323
#006380:00000000000000000000000000000013
#007380:23
#007321:1333230000000000
#007351:00330033000000000000000000000000
#007361:00000000000000130000000000000000
#007321:0000000000230000
#0093b1:13
#009391:00330000000000000000000000000000
#009371:0023000000000000
#009360:00130000000000000000000000000000
#009340:0033000000000000
#009320:00000023000000000000000000000000
#0093b1:00000013000000000000000000000000
#009391:00330000
#009371:00000000002300000000000000000000
#009360:00130000
#009340:00000000003300000000000000000000
#009320:0000002300000000
#0093b1:0000001300000000
#009391:00000000000000330000000000000000
#009371:0023
#009360:00000000000000130000000000000000
#009340:0033
#009320:00000000000000000023000000000000
#009381:00000000000000000013000023000000
#0093b1:0000000000000000000000000000000000000000005300000000000000000000
#0113b1:00130000
#011381:00000000003300000000000000000000
#0113a1:0000003300000000
#011371:00000000000000330000000000000000
#011391:0023
#011320:0013
#011350:00000000000000000033000000000000
#011330:0000000000330000
#011360:00000000000000000000003300000000
#011340:00000023
#0123b0:13230000
#012370:0053000000000000
#012320:00000000000000000013002300000000
#012350:0000000000530000
#013380:00000000001300000000000000000000
#0133b0:00000000000000230000000000000000
#013361:00000000000000130000230000000000
#013321:0000000000000000000000000000000000530000000000000000000000000000
#014321:13230000
#014361:0053000000000000
#0143b1:00000000000000000013002300000000
#014381:0000000000530000
#015361:13
#015321:0023000000000000
#0153b0:13
#015370:0023000000000000
#015350:00000000001300000000000000000000
#015320:00000000000000230000000000000000
#0153b0:00000000000000000013005300000000
#015370:00000000000000000000000000230000
#015361:00000000000000000000001300000000
#015321:0000000000000023
#0163b1:13230000
#016371:0053000000000000
#016351:00000000000000000013002300000000
#016321:0000000000530000
#017381:00000000001300000000000000000000
#0173b1:00000000000000230000000000000000
#017360:00000000000000130000230000000000
#017320:0000000000000000000000000000000000530000000000000000000000000000
#018320:13230000
#018360:0053000000000000
#018380:00000000000000000013002300000000
#0183b0:0000000000530000
#019360:13
#019320:0023000000000000
#0193b1:13
#019371:0023000000000000
#019351:00000000001300000000000000000000
#019321:00000000000000230000000000000000
#0203b1:00000000000000001323000000000000
#020361:00000000000000000000132300000000
#0203b1:00000000000000000000000013230000
#021321:00000000000000000013000023000000
#021361:0000000000000000000000000000000000000000005300000000000000000000
#022321:00000000000000001323000000000000
#022371:00000000000000000000132300000000
#022321:00000000000000000000000013230000
#024361:13230000
#024321:0053000000000000
#0243b1:00000000000000000013002300000000
#024371:0000000000530000
#025321:00000000001300000000000000000000
#025361:00000000000000230000000000000000
#0253b0:00000000000000130000230000000000
#025370:0000000000000000000000000000000000530000000000000000000000000000
#026370:13230000
#0263b0:0053000000000000
#026320:00000000000000000013002300000000
#026360:0000000000530000
#0273b0:00000000001300000000000000000000
#027370:00000000000000230000000000000000
#027320:00000000000000000013005300000000
#027360:00000000000000000000000000230000
#027371:00000000000000000000001300000000
#0273b1:0000000000000023
#028361:13230000
#028321:0053000000000000
#028321:00000000000000000013002300000000
#028361:0000000000530000
#029321:00000000001300000000000000000000
#029361:00000000000000230000000000000000
#0293b0:00000000000000130000230000000000
#029370:0000000000000000000000000000000000530000000000000000000000000000
#030370:13230000
#0303b0:0053000000000000
#0303b0:00000000000000000013002300000000
#030370:0000000000530000
#0313b0:00000000001300000000000000000000
#031370:00000000000000230000000000000000
#032320:13000023000000000000000000000000
#032360:0000005300000000000000000000000000000000000000000000000000000000
#032371:00000013000023000000000000000000
#0323b1:0000000000000000005300000000000000000000000000000000000000000000
#032371:00000000000000000013000000000000
#0323b1:0000000000000000000000000000000000000000005300000000000000000000
#032381:00000023
#033371:13
#0333b1:00000023000000000000000000000000
#033371:00000000000000000000000000130000
#034321:23
#034371:00000000000000130000000000000000
#034321:0000000000230000
#0363b1:13000023000000000000000000000000
#036371:0000005300000000000000000000000000000000000000000000000000000000
#036360:00000013000023000000000000000000
#036320:0000000000000000005300000000000000000000000000000000000000000000
#036320:00000000000000000013000000000000
#036370:00000023
#037360:13
#037320:00000023000000000000000000000000
#037380:00000000000000000000130000230000
#0373b0:0000000000000000000000000000000000000000000000530000000000000000
#037351:0000000000132300
#037321:00000000000000000000005300000000
#0393b0:0000000000001323
#039380:00000000000000000000000000530000
#039321:0000000000001323
#039351:00000000000000000000000000530000
#040371:13
#040321:0023000000000000
#040321:00000000000000130000230000000000
#040361:0000000000000000000000000000000000530000000000000000000000000000
#041361:0013000000000000
#041321:00230000
#0413b0:0013000000000000
#041370:00230000
#0413b0:0000000000130000
#041370:00000023
#041321:00000013
#041361:0000000000000023
#0413b0:0000000000000013
#042370:23
#0423b0:00000000000000130000000000000000
#042360:0000000000230000
#043370:13
#0433b0:0023000000000000
#043361:0013000000000000
#043321:00230000
#043370:00130000
#0433b0:0000002300000000
#043361:0000001300230000
#043321:0053
#044361:13
#0443b1:0023000000000000
#0443b1:00000000000000130000230000000000
#044371:0000000000000000000000000000000000530000000000000000000000000000
#045321:0000000000130000
#045371:00000023
#0463b1:0013000000000000
#046361:00230000
#046361:00000000000000130000000000000000
#046321:00000000000000000023000000000000
#0483b1:00000000000000000000000013000023
#048371:0000000000000000000000000000000000000000000000000000005300000000
#0493b1:00130000
#0493a1:0000000000000000003300000000000000000000000000000000000000000000
#049391:00000000003300000000000000000000
#049381:0000000000000000000000330000000000000000000000000000000000000000
#049371:0000000000000000000000003333330000000000000000000000000000000000
#049361:0000000000000000000000000000003323000000000000000000000000000000
#049361:00000000000000000000001300000000
#049351:0000000000000000000000000000000000000000000000330000000000000000
#049341:00000033
#049331:0000000000000000000000000000000000000000000000000033000000000000
#049321:00000000000000000000000000230000
#049370:00000000000000000000000000130000
#049380:0000000000000000000000000000000000000000000000000000003300000000
#049390:0000000000000033
#0493a0:0000000000000000000000000000000000000000000000000000000000330000
#0493b0:00000000000000000000000000000023
#049361:00000000000000000000000000000013
#049351:0000000000000000000000000000000000000000000000000000000000000033
#050341:33
#050331:0033000000000000000000000000000000000000000000000000000000000000
#050321:00230000000000000000000000000000
#050321:00000000000000000000000013000023
#050361:0000000000000000000000000000000000000000000000000000005300000000
#051321:00130000
#051331:0000000000000000003300000000000000000000000000000000000000000000
#051341:00000000003300000000000000000000
#051351:0000000000000000000000333300000000000000000000000000000000000000
#051371:000000000023000000000000
#052361:00000000000000000000000013000023
#052321:0000000000000000000000000000000000000000000000000000005300000000
#0523b0:00000000000000000000000013000023
#052370:0000000000000000000000000000000000000000000000000000005300000000
#053360:00130000
#053350:0000000000000000003300000000000000000000000000000000000000000000
#053340:00000000003300000000000000000000
#053330:0000000000000000000000333333000000000000000000000000000000000000
#053320:0000000000000000000000000000333323000000000000000000000000000000
#053371:000000000000000000000000000000000000000000000000000000000000000000000000000000000000000000000000125200520052005200520052005200520052005200520052005200520052005200520052005200520052005200520052
#053361:000000000000000000000000000000000000000000000000000000000000000000000000000000000000000000000000000000000000000000000000000000000000000000000000000000000000000000000000000000000000000000000000000000000000000000000000000000000000000000000000000000000000000000000000000000000000000000000000000000000000000000000000000000000000000000000000000000000000000000000000000000000000000000000000000000000000000000000000000000000000000000000000000000000000000000000000000000000000000000000000000000000000000000000000000000000000000000000000000000000000000000000000000000000000000000000000000000000000000000000000000000000000000000000000000000000000000000000000000000000000000000000000000000000000000000000000000000000000000000000000000000000000000000000000000000000000000000000000000000000000000000000000000000000000000000000000000000000000000000000000000000000000000000000000000000000000000000000000000000000000000000000000000000000000000000000000000000000000000000000000005400000000000000000000000000000000000054000000000000000000000000000000000000005400000000000000000000000000000000000000540000000000000000000000000000000000000034000000000000000000000000000000000000005400000000000000000000000000000000000000540000000000000000000000000000000000000054000000000000000000000000000000000000003400000000000000000000000000000000000000540000000000000000000000000000000000000054000000000000000000000000000000000000005400000000000000000000000000000000000000000000000000000000000000000000000000000000000000000000000000000000000000000000000000000000000000000000000000000000000000000000000000000000000000000000000000000000000000000000000000000000000000000000000000000000000000000000000000000000000000000000000000000000000000000000000000000000000000000000000000000000000000000000000000000000000000000000000000000000000000000000000000000000000000000000000000000000000000000000000000000000000000000000000000000000000000000000000000000000000000
#053351:000000000000000000000000000000000000000000000000000000000000000000000000365656563656565636565656
#054351:26
#054321:0013
#054351:0000000000000023
#0543b0:0013
#054380:0000000000000023
#0553a0:1424000000000000
#055370:00540000000000000000000000000000
#055320:00000000000000130000230000000000
#055360:0000000000000000000000000000000000530000000000000000000000000000
#0563b0:13
#056360:0023000000000000
#056371:13
#056321:0023000000000000
#056361:00000000001300000000000000000000
#056321:00000000000000230000000000000000
#056381:0000000000132300
#0563b1:00000000000000000000005300000000
#056350:0000000000001323
#056320:00000000000000000000000000530000
#056381:0000000000000013
#0563b1:00000000000000000000000000000053
#057381:23
#0573b1:00000000000000130000000000000000
#057371:0000000000230000
#058371:13
#0583b1:00532300000000000000000000000000
#058360:0013000000000000
#058320:00000053230000000000000000000000
#058371:00130000
#0583b1:00000000005323000000000000000000
#059321:1424000000000000
#059351:00540000000000000000000000000000
#0593b1:00000000000000130000230000000000
#059371:0000000000000000000000000000000000530000000000000000000000000000
#060321:13
#060371:0023000000000000
#060360:13
#0603b0:0023000000000000
#060370:00000000001300000000000000000000
#0603b0:00000000000000230000000000000000
#060350:0000000000132300
#060320:00000000000000000000005300000000
#060380:00000000000000000000000000130023
#0603b0:0000000000000053
#061370:0013000000000000
#061320:00230000
#061370:00000000001300000000000000000000
#0613b0:00000000000000230000000000000000
#061361:00000000000000130000230000000000
#061321:0000000000000000000000000000000000530000000000000000000000000000
#061371:00000000000000000000000000000013
#0623b1:0053000000000000000000000000000000000000000000000000000000000000
#062371:0023000000000000
#0643b1:00000000000000001323000000000000
#064320:00000000000000000013230000000000
#064381:00000000000000000000132300000000
#064350:00000000000000000000001323000000
#0643b1:00000013
#064391:00000000000000000000000000330000
#064381:0000000000000033
#064371:00000000000000000000000000000033
#065361:23
#065320:13230000000000000000000000000000
#0653b1:00132300000000000000000000000000
#065350:00001323000000000000000000000000
#065381:00000013230000000000000000000000
#065320:00130000
#065340:00000000003300000000000000000000
#065350:0000003300000000
#065360:00000000000000330000000000000000
#065370:0023
#067370:0013
#067380:000000000000000000000000003300000000000000000000
#0673a0:000000000000003300000000
#0673b0:0000000000230000
#067321:0000000000130000
#067331:000033
#067341:000000000000000000000000000000000033000000000000
#067351:00000023
#067380:00000013
#067390:000000000000000000000000000000000000003300000000
#0673a0:000000000033
#0673b0:0000000000000023
#067361:0000000000000013
#067341:000000000000000000000033
#067331:000000000000000000000000000000000000000000000033
#068321:23
#0683b0:13
#0683a0:003300000000000000000000000000000000000000000000
#068390:003300000000000000000000
#068380:0023000000000000
#068351:0013000000000000
#068341:003300000000
#068331:000000000033000000000000000000000000000000000000
#068321:00230000
#068370:00130000
#068380:000000000000003300000000000000000000000000000000
#0683a0:003300
#0683b0:0000002300000000
#068361:0000001300000000
#068351:000000000033000000000000
#068331:000000000000000000000033000000000000000000000000
#068321:0023
#068371:00000013
#0683b1:00000000000000000000000000000023
#069321:0013
#069361:0000000000230000
#0693b0:0000000000130000
#069370:00000023
#071320:00000000132300000000000000000000
#071381:00000000001323000000000000000000
#071350:00000000000013230000000000000000
#072320:00000000000000130000000000000000
#072360:00000053
#073320:23
