This file was generated by Ched 2.6.2.0.
#TITLE ""
#ARTIST ""
#DESIGNER ""
#DIFFICULTY 0
#PLAYLEVEL
#SONGID ""
#WAVE ""
#WAVEOFFSET 0
#JACKET ""
#REQUEST "ticks_per_beat 480"
#00002: 4
#BPM01: 130
#00008: 01
#TIL00: ""
#HISPEED 00
#MEASUREHS 00
#00019:1414
#00013:00140000
#00213:1414
#00219:00140000
#0041a:14
#00414:00140000
#00418:0014
#00410:41
#01614:0014
#0161a:00000014
#01214:0014
#01218:00000014
#01210:41
#0131a:00140000
#01312:1400000000340000
#02014:00140000
#02018:0014
#02012:00000014
#0201a:14
#02010:41
#02118:14
#02114:00140000
#02412:0014
#02416:00000014
#0251a:1414
#02516:00000014
#02512:00140000
#0321a:14
#03210:41
#03312:14
#0341a:14
#03414:00140000
#03418:0014
#03412:00000014
#0351a:14140000
#03514:0014001400000000
#03612:14
#0371a:14
#03812:14
#03818:00140000
#03814:0014
#0381a:00000014
#04014:0014001400000000
#0401a:24141414
#04010:41
#04112:14140000
#04118:0014001400000000
#04212:14
#04216:00140014
#0421a:0014
#04312:14
#04318:0014000000000000
#04314:00140000
#04718:1400140000140000
#04714:0014000014001400
#0471f:11
#04819:1414
#04813:00140000
#0491a:00140000
#04912:0014
#04918:00000014
#05014:14
#0501a:00140000
#05012:0014
#05112:00140014
#0511a:0014
#0531a:00140000
#05314:0014
#05318:00000014
#05518:0000140000140000
#05512:0014
#05514:00000014
#0551f:21
#0561a:1414
#05614:0000140000140000
#05618:00000014
#05610:41
#05712:16
#05715:00160016
#05718:0016
#0611a:00000000000000140000000000000000
#06114:00000000000000140000000000000000
#06118:00000000000000000000000000000014
#06112:00000000000000000000000000000014
#06314:00000014
#06318:003636363636000000000000
#06418:14
#06412:00140000
#0641a:0014
#06414:00000014
#06518:14001414
#06512:00140000
#06514:0000000000140000
#06718:0014000014001400
#06712:14140000
#06813:14140000
#06814:00001414
#06819:0014000000000000
#06919:14140000
#06912:0014
#06914:00000014
#06913:0014000000000000
#07018:14
#0701a:00140000
#05412:2414
#04418:0014001400000000
#04412:24141414
#0451a:14140000
#04514:0014001400000000
#04619:1414
#04613:00140014
#0281a:14
#02814:00140000
#02818:0014
#02812:00000014
#00612:14
#00618:00140000
#00614:0014
#00818:14
#00814:00140000
#0081a:0014
#00812:00000014
#01014:14
#01018:00140000
#01012:0014
#0101a:00000014
#02212:14
#02218:00140000
#02214:0014
#0221a:00000014
#02314:14
#02318:00140000
#0291a:14
#02914:0000140000140000
#02918:00001414
#0521a:1414
#05212:00140000
#05912:00140000
#0591a:0014
#05918:24000014
#05914:0000000000140000
#06014:14000014
#0601a:00140000
#06012:0014
#06018:0000000000140000
#0661a:00001414
#06614:1400140000140000
#06618:0014000000000000
#07218:00000000000000140000000000000000
#01712:14
#01718:00140000
#01714:0000000000340000
#01418:0014
#01414:00000014
#01512:00140000
#0151a:1400000000340000
#0261a:0014
#02616:00000014
#02712:1414
#02716:00000014
#0271a:00140000
#03012:14
#03018:00140000
#03014:0014
#0301a:00000014
#03112:14
#03118:0000140000140000
#03114:00001414
#05812:16160000
#05818:0016001600000000
#01818:0014
#01812:00000014
#0191a:14
#01914:00140000
#01918:0000000000340000
#0325a:54
#03352:54
#03652:64
#0375a:64
#05554:14
#0615a:00000000000000540000000000000000
#06154:00000000000000540000000000000000
#06152:00000000000000000000000000000054
#06158:00000000000000000000000000000054
#0625a:0014
#06254:0014
#0215a:00000014
#05452:0054
#04853:00000000000000000000000000000014
#05059:00000000000000000000000000000014
#05253:00000000000000000000000000000014
#02352:00000014
#03959:00000000000000000014000000000000
#03953:00000000000000000014000000000000
#07258:00000000000000540000000000000000
#001390:1424
#003330:1424
#005380:14
#0053a0:0024
#007340:14
#007320:0024
#009380:1424
#011340:1424
#012380:14240000
#013320:0000000014340000
#013340:00000024
#014340:14240000
#0153a0:0000000014340000
#015380:00000024
#016380:14240000
#017340:0000000014340000
#017320:00000024
#018340:14240000
#019380:0000000014340000
#0193a0:00000024
#0213a0:00001424
#023320:00001424
#0243a0:14240000
#026320:14240000
#0323a0:14
#032380:00000024
#033320:14
#033340:00000024
#036320:14
#036340:00000024
#0373a0:14
#037380:00000024
#039330:14000034000034000024000000000000
#039391:14000034000034000024000000000000
#041321:00001424
#0433a1:0000001400002400
#0453a1:00001424
#048331:00000000000000000000000014000024
#050391:00000000000000000000000014000024
#052331:00000000000000000000000014000024
#054321:1434
#055341:24
#061341:14000000000000340000000000000000
#061321:00000000000000000000000000000034
#062341:0024
#0613a0:14000000000000340000000000000000
#061380:00000000000000000000000000000034
#0623a0:0024
#063380:163636363636000000000000
#063360:0026
#070340:00000000000000001434003434003434
#071340:00343400240000000000000000000000
#071380:00000000000000001434003434003434
#072380:00343400340000340000000000000000
#0733a0:24
