This file was generated by Ched 2.6.2.0.
#TITLE ""
#ARTIST ""
#DESIGNER ""
#DIFFICULTY 0
#PLAYLEVEL
#SONGID ""
#WAVE ""
#WAVEOFFSET 0
#JACKET ""
#REQUEST "ticks_per_beat 480"
#00002: 4
#BPM01: 128
#00008: 01
#TIL00: ""
#HISPEED 00
#MEASUREHS 00
#00119:14
#00213:14
#00319:14
#00413:14
#0051a:14
#00614:14
#00718:14
#00812:14
#00919:14
#00910:41
#01013:14
#01119:14
#01213:14
#01319:14
#01813:14
#01919:14
#02013:14
#0211a:14
#02212:14
#02318:14
#02310:41
#02414:14
#02918:14
#03014:14
#03118:14
#03214:14
#03414:14
#0351a:14
#03510:41
#03612:14
#03719:1414
#03813:1414
#03919:1414
#04218:14
#04312:14
#04310:41
#0441a:14
#04513:14
#04013:14
#0511a:14
#05110:41
#05212:14
#05318:14
#05414:14
#05619:14
#05813:14
#0251f:11
#03318:24
#0331f:21
#04114:24
#05519:24
#05513:24
#05713:24
#05719:24
#01710:41
#014330:14
#015330:24
#016390:14
#017390:24
#025390:14
#026390:24
#027330:14
#028330:24
#046390:14
#047390:24
#048330:14
#049330:34
#050330:0024
#059390:14
#061390:24
