This file was generated by Ched 2.6.2.0.
#TITLE ""
#ARTIST ""
#DESIGNER ""
#DIFFICULTY 0
#PLAYLEVEL
#SONGID ""
#WAVE ""
#WAVEOFFSET 0
#JACKET ""
#REQUEST "ticks_per_beat 480"
#00002: 4
#BPM01: 128
#00008: 01
#TIL00: ""
#HISPEED 00
#MEASUREHS 00
#00112:0000130000001313
#0011b:2300001300000000
#00118:0013
#00115:0000000000130000
#00117:0000000000001313
#00216:0013140000000000
#00212:1300001300130000
#00215:00000013
#00218:0000000000000013
#00217:0000001300000000
#0031b:1300001300130000
#00315:00000013000000000000130000000000
#00318:0000130013000013
#00312:13
#00416:0000130000001413
#00415:0013000000000000
#00417:0000000000130000
#0041b:0000130000000013
#00412:13
#00512:1313000000000013
#0051b:13000000130013000000131300000000
#00517:0013000013000000
#00516:00000000001300000000131300000000
#00518:0000000000000013
#0061b:1300000000000013
#00617:00000000130000000000131300000000
#00612:00000000130000000000131300000000
#00616:1300000013000013
#00613:0013001300000000
#00712:1300001300130000
#00716:00000013000000001300000000000000
#00717:13000000000013000000001300000000
#0071b:0013000013000013
#00817:00130000
#00812:0000001300000000
#00815:00000000000000001300001300000000
#0081b:0013001300000000
#00818:1300000000130000
#01716:0000001300000000
#01717:00001313
#01714:0000000000000013
#0171b:0000001300000000
#01718:23
#01710:41
#01814:0013000000000000
#0181b:0000131313000000
#01816:00130000
#01818:00000013
#01812:13
#02012:0000131313000013
#02019:0013000000000000
#02017:00130000
#02015:00000013
#0201b:13
#02118:0013000000000000
#0211b:2300130000000013
#02115:23001313
#02112:0000130000000013
#02218:1313
#02215:0013000000000000
#02212:1300130000130000
#02219:00000013
#0221b:0000130000130000
#02214:00000013
#02216:0000000000000014
#02312:1300001300000000
#02317:0013
#02319:0000000000130000
#02315:0000000000000013
#02318:00000000000000000000000000000013
#02316:0013000000000000
#02314:00130000
#0231b:13000013
#02310:41
#02415:0013130000000000
#0251b:2300001300000000
#02517:0013
#02518:0013000000001313
#02516:0000001300000000
#02512:2313
#02515:00000013000000000000000000001300
#0251f:11
#02618:0013130000000000
#02615:00131300
#02612:13000000000000000000130000130000
#0261b:0000001300000000
#02617:0000000000131300
#02619:0000000000000013
#02614:00000000000000000000000000000013
#0291b:0000001200000012
#02919:0012
#02917:0000000000120000
#02915:00000013000000000000000012000000
#02918:0013000000000000
#02912:23
#03017:00120000
#03013:0000001200000000
#03012:0000000000230000
#03015:00000023
#03018:0000000000000023
#03112:0013000013000013
#03115:00130013
#03118:0000001300130000
#0311b:0000000013000013
#03912:0000000013000013
#03915:13000013000013000000130000000000
#0391b:1300001300000013
#03918:00001300000000001300001300000000
#04212:0000001300131300
#04219:0000000000000013
#04217:00000000000013000000001300000000
#04214:13000000000000000000000000000013
#04216:0013140013000000
#0421b:0013
#04319:13000000000000130000000000001300
#0431b:00000013000000000000000000000000
#04314:00000000000013001300000000000013
#04316:0013000000000000
#04312:00000000000000000000001300000000
#04317:0000000000130000
#04310:41
#04412:0000001300000013
#04414:0013
#04416:0013000000130000
#04419:13000013
#0441b:00000013000000000000130000000000
#04417:0000001300000013
#04517:00000013000000000000000000001300
#0451b:0000000000130000
#04512:0000132600000013
#04516:00000000000000000013000000000000
#04518:26000026
#04918:13
#0491b:0013
#04912:0000001300130013
#04915:00001313
#00915:0000130000131300
#00918:0000001313000013
#0091b:23130013
#00912:2313
#00910:41
#01012:1400001300000000
#0101a:00140000
#01016:0014000000001300
#0101b:00000000000000000000000000130000
#01014:0000000000000013
#01019:00000000000000000000000000000013
#01017:00000000000000130000000000000000
#01112:1300131300001300
#0111b:00001300000000000013000013330033
#01116:0013000000130000
#01117:00000000130000130000000000001300
#01912:1313001300000000
#0191b:00130000
#01916:00131313
#01919:0000000000000013
#01917:0000001300000000
#0121b:0000131300001300
#01212:13001300000000000013000013000000
#01217:0013000000130000
#01216:00000000130000130000000000001300
#01312:0000130000132600
#0131b:0000130000130000
#01318:26
#01315:0000002600000000
#0151b:0000130000130000
#01512:2600130000130000
#01515:0000002600000000
#01518:00000026
#0331b:0000130000001313
#03312:0000001300001300
#03315:0013
#03318:00000000000000130000130000000000
#03316:0000130000000013
#0331a:24
#0331f:21
#03417:0013000013000000
#0341b:0000001300130000
#03416:0000141300001300
#03412:00000000000000001333333300333333
#0341a:00000013
#03419:1300000000000013
#03515:00000013000000000000000013001300
#03518:0000130000130000
#03516:0000001300000000
#03514:0013
#03512:0000000000130000
#0351b:1300001300001300
#03519:0013
#03510:41
#03617:0000130000000013
#0361b:0013000000000000
#03616:0000000000131400
#03612:1300130013000013
#03618:13
#0371b:0013000000000013
#03712:00000000130013000000131300000000
#03716:1413000013000000
#03717:00000000001300000000131300000000
#03715:0000000000000013
#03818:0000000000000013
#03816:00000000130000000000131300000000
#0381b:00000000130000000000131300000000
#03812:1300000000000013
#03817:1313
#0381a:0013001300000000
#03218:00130013000000000000000000002300
#03215:23001300000000000000000000000023
#0321b:00000000001300130000000000000000
#03212:0000231300000000
#03216:00000000000000001434343400000000
#0271b:1300001300131300
#02717:0013
#02712:00001313
#02718:00000013000000000000000000001300
#02716:0000001300130000
#02715:0013000000000013
#02818:00001300000000130000000000000000
#02816:00000013
#0281b:00000000130000000000000000130000
#02814:0000000000000013
#02819:00000000000000000000000000000013
#02812:00130000
#02815:0000001300000000
#04716:00000013000000000000000000001300
#04712:2600000000132600
#0471b:0000130000000013
#04717:00000000000000000013000000000000
#04718:0000002600000000
#0511b:13000000000013000000001300000000
#05119:00001300000000000000000000130000
#05117:00000000130000000000000000000013
#05115:00000000000000130000000000000000
#05118:0013
#05112:00130013000000000013000000000000
#05116:00000013
#05114:0000000000000013
#05110:41
#05212:13000000000013000000001300000000
#05214:00001300000000000000000000130000
#05216:00000000130000000000000000000013
#05218:00000000000000130000000000000000
#05215:0013
#0521b:00130013000000000013000000000000
#05217:00000013
#05219:0000000000000013
#0601b:1313
#06012:00000000000013000013000000000000
#06018:00000013000000000000130013000000
#06015:00001300000000000000001300000000
#0531b:1300001300130000
#05317:00000013000000000000000000001300
#05312:00000013000000001300000000001300
#05316:00000000000013000000001300000000
#0541b:1300000000130013
#05416:13000014
#05412:0000000000130013
#05618:00130013000000000000000000333333
#05612:23001300000000000033333300000000
#0561b:00000000001300130000000000000000
#05615:0000231300000000
#05512:00000013000000000013000000000000
#0551b:00000013000000000013000000000000
#05516:24
#05515:0000002600000000
#05514:00000028
#05916:00000013000000000000130014000000
#05917:2300001300000013
#0591b:00000013000000000000130000000000
#05912:0000001300000013
#0571b:00000013000000000013000000000000
#05712:00000013000000000013000000000000
#05716:24
#05715:0000002600000000
#05714:00000028
#01418:00130013000000000000000000333333
#01412:23001300000000000033333300000000
#0141b:00000000001300130000000000000000
#01415:0000231300000000
#04015:00130013000000000000000000002300
#04018:23001300000000000000000000000023
#04012:00000000001300130000000000000000
#0401b:0000231300000000
#04016:00000000000000001434343400000000
#04112:2400130000001313
#0411b:0000001300001300
#04118:0013
#04115:00000000000000130000130000000000
#04117:0000130000000013
#04612:00333333000000001333003300000000
#04615:0000000000130000
#0461b:00000000000000000000000013330033
#04618:00000000003333330000000000001300
#0481b:00333333000000001333003300000000
#04818:0000000000130000
#04812:00000000000000000000000013330033
#04815:00000000003333330000000000001300
#05015:13000000000000000013001300000000
#0501b:0013000000002300
#05012:00000013000000000000000023000000
#05018:0000001313130000
#05815:00130013000000000000000000333333
#0581b:23001300000000000033333300000000
#05812:00000000001300130000000000000000
#05818:0000231300000000
#01615:00130013000000000000000000333333
#0161b:13001300000000000033333300000000
#01612:00000000001300130000000000000000
#01618:0000131300000000
#00018:0000000000000023
#00015:00000000000000000000000000000023
#06112:2c
#00157:0000000000000053
#0015b:13
#00355:0000000000530000
#00358:0000000000000053
#00456:00530000
#00552:0053000000000000
#00556:00000000002300000000000000000000
#0065b:53
#00657:00230000
#00855:00000000000000000000006300000000
#01856:00630000
#02057:00530000
#01358:16
#01355:0000001600000000
#01352:00000016
#01552:16
#01555:0000001600000000
#01558:00000016
#0215b:00530000
#02252:00530000
#03558:0000000000630000
#03555:0000000000000063
#0355b:63000023
#03657:00630000
#03652:23
#0375b:0063000000000000
#03757:00000000002300000000000000000000
#03356:0000000000000063
#0335a:14
#03852:63
#03856:00230000
#02358:00000000000000000000000000000053
#02455:00530000
#02452:00000013
#0245b:00000013
#02555:0000000000000053
#02658:00530000
#02652:23
#0265b:0000002300000000
#02755:0000000000000053
#02858:00000000000000530000000000000000
#04558:46000046
#04552:0000003600000000
#04752:36000036
#04758:0000004600000000
#01052:14
#01056:0014000000000000
#0105a:00140000
#04958:53
#0495b:0023
#06152:1c
#0545b:53
#05456:53
#05556:14
#05555:0000001600000000
#05554:00000018
#06058:00000053000000000000000013000000
#05756:14
#05755:0000001600000000
#05754:00000018
#0115b:00000053
#01157:0000000000000023
#01252:00000063
#01256:0000000000000023
#03456:00000023
#03452:0063
#03256:0024
#03254:00000018
#04056:0024
#04054:00000018
#04157:0000000000000053
#04152:14
#04652:0053
#0465b:00000053
#04655:0000000000230000
#04658:0000000000000023
#0485b:0063
#04858:0000000000230000
#04852:00000053
#04855:0000000000000023
#05052:00000053000000000000000033000000
#0505b:00000043
#0535b:13
#05352:0013
#0435b:00000013000000000000000000000000
#04352:00000000000000000000001300000000
#0445b:00000013000000000000000000000000
#00952:13
#0095b:13
#03058:0000000000000053
#001370:0000000000000013
#0023b0:0023000000000000
#003350:0000000000130000
#003320:0000000000000023
#003381:0000000000000013
#0043b1:0023000000000000
#004361:00130000
#004321:0000000000230000
#005321:0013000023000000
#005361:00000000005300000000000000000000
#0063b1:1323
#006371:00530000
#007321:0000000000000013
#008321:0023000000000000
#008351:00000000000000000000001300000000
#009321:23
#0103b1:00000000000000000013333323000000
#0103a1:0000000000000000000000000000000000000033003300000000000000000000
#0113b1:00000000000000000000000013330033
#011371:0000000000000033
#0123b1:23
#012321:00000013
#012361:0000000000000033
#013321:23
#014321:00000000000000001333333300000000
#014351:00000023
#014380:00000000000000000000000013333333
#0153b0:23
#0163b0:00000000000000001333333300000000
#016380:00000023
#016351:00000000000000000000000013333333
#017321:23
#017321:00001323
#017391:0000000000000013
#018391:0023000000000000
#018361:00130000
#018321:00000023
#018381:0000000000000013
#019381:0023000000000000
#0193b1:00001323
#019341:0000000000000013
#020341:0023000000000000
#020371:00130000
#0203b1:00000023
#0213b1:00130000
#021381:0000000000230000
#022321:00130000
#022351:0023
#0233b1:0013000000000000
#023371:0000002300000000
#023321:0013
#023361:00000023
#023381:00000000000000000000000000000013
#0243b1:00005323
#024350:00130000
#024320:00000023
#025350:0000000000000013
#026320:53
#026350:0023000000000000
#026380:00132300
#0263b0:0000005300000000
#027350:0000000000000013
#028320:0023000000000000
#028380:00000000000000130000000000000000
#0283b0:00000023
#029330:0000000000000012
#030330:0022000000000000
#0303b1:0012002200000000
#030381:0000000000000013
#0313b1:0023000000000000
#032361:00000000000000001434343400000000
#032341:00000028
#033361:0000000000000013
#034321:0023000000000000
#034321:00000000000000001333333300333333
#034361:00000033
#035321:23
#0353b0:13
#035380:00000023000000000000000000000000
#035380:0000000000130023
#0353b0:00000053
#035351:0000000000000013
#036321:53
#036351:0023000000000000
#036371:00130000
#0363b1:0000000000230000
#0373b1:0013000023000000
#037371:00000000005300000000000000000000
#038321:1323
#038361:00530000
#040361:00000000000000001434343400000000
#040341:00000028
#041371:0000000000000013
#0423b1:0023000000000000
#046321:13333333000000000000000000000000
#046351:00230000
#046380:00000000133333330000000000000000
#0463b0:0023
#046321:00000000000000001333003323000000
#046351:0000000000330000
#0463b0:00000000000000000000000013330033
#046380:0000000000000033
#0473b0:23
#0483b0:13333333000000000000000000000000
#048380:00230000
#048351:00000000133333330000000000000000
#048321:0023
#0483b0:00000000000000001333003323000000
#048380:0000000000330000
#048321:00000000000000000000000013330033
#048351:0000000000000033
#049321:23
#049380:13
#0493b0:0053
#050380:23
#050320:00000013000000000000000000000000
#050350:0000002300000000
#0543b0:13
#054370:0000002300000000
#054361:13
#054321:0000002300000000
#056321:00000000000000001333333300000000
#056351:00000023
#056380:00000000000000000000000013333333
#0573b0:23
#0583b0:00000000000000001333333300000000
#058380:00000023
#058351:00000000000000000000000013333333
#059321:23
#060381:00000013000000000000000000000000
#0603b1:0000002300000000
