This file was generated by Ched 2.6.2.0.
#TITLE ""
#ARTIST ""
#DESIGNER ""
#DIFFICULTY 0
#PLAYLEVEL
#SONGID ""
#WAVE ""
#WAVEOFFSET 0
#JACKET ""
#REQUEST "ticks_per_beat 480"
#00002: 4
#BPM01: 128
#00008: 01
#TIL00: ""
#HISPEED 00
#MEASUREHS 00
#00112:00130013
#00118:2400001300000013
#00115:0013
#0011b:0000000000130000
#0021b:0000001300000000
#00212:0000000000130000
#00218:00000013
#00215:0000130000000013
#0031b:13
#00315:00000013000000000000130000000000
#00318:00131300
#00312:0000001300000013
#00418:00130013
#00415:0000000000000013
#00412:0000000000130000
#0051b:0013333300000000
#00515:0000000000130000
#00518:00000000001300000000001300000000
#00512:0000000000000013
#00612:1333003300000013
#00618:0000000000130000
#00615:00000000130000000000001300000000
#00718:13000013000000000000130000000000
#00715:00001300000000001300001300000000
#0071b:0000001300000000
#00816:00140000
#00812:0000001400000000
#00818:00000000000000001300001300000000
#00815:0000000000130000
#01718:0000001300000000
#0171b:23
#01715:23
#01710:41
#02012:0000000000000013
#02018:00130000
#02118:0013000000000000
#0211b:0000130000000013
#02115:23
#02218:13
#02215:0013000000000000
#02212:0000130000130000
#02219:0000000000000013
#0221b:0000000000130000
#0221a:00000013
#02213:00000013
#02214:0000000000000013
#02318:0000330000000013
#02315:00000000000000000000330000000013
#02310:41
#02418:0013000000000000
#02415:00130000
#02412:00000023
#0251b:1300001300000000
#02512:00000013000000001300000000000000
#02518:00000013000000001300000013000000
#02515:1300001300000013
#0251f:11
#02915:0013000000121200
#02918:00000013000000000000000000000000
#02919:0000001212000000
#0291b:13
#03013:00120000
#0301b:0000001200000000
#03012:0000000000230000
#03018:00000023
#03015:0000000000000023
#0311b:0013000000000013
#03118:00130013
#03115:0000001300130000
#03112:0013
#00915:00130013
#00918:0013
#0091b:2300131300001313
#00912:0000000013130000
#00910:41
#01015:13000000130000130000000000001300
#01018:0013001300000000
#01118:1300130013000013
#01112:00130013
#01115:0013001300130000
#0111b:0013000000001300
#01815:00130000
#0131b:00130000
#01312:0000000000130000
#01318:24000024
#01314:0000002400000000
#0331b:23130013
#03312:0000001300000000
#03315:0000130013000013
#03318:0000000000130000
#0331f:21
#0341a:0000001400000000
#03416:00140000
#0341b:0000000000130000
#03418:00000013
#03415:0000000000000013
#03616:00000014
#03612:0000130000000014
#03618:00130000
#0361a:0000000000140000
#03212:1313000000000000
#0321b:0000131300000000
#03215:00000000230000001333333300000023
#03218:2300000000000023
#02618:00130000
#02715:00000013000000000000000013001300
#02718:1300001300130000
#02712:1300001300000000
#0271b:00000013000000001300000000000000
#0281b:00130000
#02815:0000001300000000
#02818:00000000000000130000000000000000
#02812:0000000000000013
#0511b:13000000000000000013000013000000
#05118:00001300000000130000000000001300
#05115:00131300
#05112:1300001300001300
#05110:41
#06018:00000013000000001400140014000000
#06014:00000000000000000014001400000000
#0601b:1300001300000000
#06015:0013000000000000
#06012:1300001300000000
#05612:13
#05615:00001300230000001434343434343434
#0561b:00130000
#05618:2300001300000000
#05518:00000013000000000000000000000000
#05515:00000000000000000013000000000000
#05512:00000013000024000000000000000000
#0551b:00000000000000000013000000000000
#0551a:24000024
#05916:00000014000000000000000000000000
#0591b:0000000000130000
#05912:0000001400000000
#05918:00000013
#05915:0000000000000013
#01415:0013000000002313
#0141b:0000001300001313
#01418:0000230013130000
#01412:2300000023130000
#01215:1300130013000013
#0121b:00130013
#01218:0013001300130000
#01212:0013000000001300
#0501b:00000013000000000000000000000000
#05015:00000013000000001300130000000000
#05018:00000000000013000013001300000000
#05012:0000001300002600
#05412:1300000000130000
#05418:1300000000130000
#05419:00000013
#0541a:0000000000000013
#05414:0000000000000013
#05413:00000013
#01512:00130000
#0151b:0000000000130000
#01514:24000024
#01518:0000002400000000
#01618:0013000000002313
#01612:0000001300001313
#01615:0000230013130000
#0161b:2300000023130000
#01912:13
#0191b:13
#01915:0000001300000000
#03512:1300000000130000
#03518:00000013000000000000130000000000
#03515:0000130013000013
#0351b:0000001300000013
#03510:41
#03712:0013333300000000
#03718:0000000000130000
#03715:00000000001300000000001300000000
#0371b:0000000000000013
#03815:0000000000130000
#03818:00000000130000000000001300000000
#0381b:1333003300000013
#03912:1300001300000013
#03918:00001300000000000000001300000000
#03915:00000013000000000000130000000000
#0391b:0013
#0401b:1313000000000000
#04012:0000131300000000
#04018:00000000230000001333333300000023
#04015:2300000000000023
#04112:23130013
#0411b:0000001300000000
#04118:0000130013000013
#04115:0000000000130000
#04212:0000001400130000
#04216:00140000
#04215:00000013
#04218:0000000000000013
#0431b:1300001300000000
#04315:00001300000000000000001300000000
#04318:00000013000000000000130000000000
#04312:0000000013000013
#04310:41
#0441b:13
#04415:0013000000130000
#04418:00000013000000000000000000000000
#04412:0000001333003300
#0451b:1300001300130000
#04516:00000014000000000000000000000000
#04512:1300001300000000
#04518:00000013
#04515:0000000000000013
#04716:00000014000000000000000000000000
#04712:1300001300140000
#0471b:1300001300000000
#04713:00000014
#04714:0000000000000014
#04718:0000000000140000
#04719:00000014
#0471a:0000000000000014
#05212:13000000000000000013000013000000
#05215:00001300000000130000000000001300
#05218:00131300
#0521b:1300001300001300
#05315:00000000000000001300003300000000
#05312:13000033000000000000000000000000
#0531b:00000000000000001300003300000000
#05318:13000033000000000000000000000000
#05715:00000013000000000000000000000000
#05718:00000000000000000013000000000000
#0571b:00000013000000000000000000000000
#05712:24000000000000000013000024000000
#0571a:0000002400000000
#05817:00000000000000001434343434343434
#0581b:13
#05818:0013230000000000
#05812:00130000
#05815:2300001300000000
#04815:00001313
#04818:0000000000130000
#0491b:13
#04915:13
#04612:00000000001300000000000000000000
#00018:0000000000000024
#00014:00000000000000000000000000000024
#06112:26
#00158:1400000000000053
#00355:0000000000530000
#00352:0000000000000053
#00458:00630000
#0055b:0063000000000000
#00558:00000000002300000000000000000000
#00652:63
#00655:00230000
#00858:00000000000000000000005300000000
#01855:00630000
#01358:14000014
#01354:0000001400000000
#0215b:00530000
#02252:00530000
#03355:0000000000000063
#0335b:13
#02455:00530000
#02452:00000013
#02555:0000000000000053
#02658:00530000
#02755:0000000000000053
#02858:00000000000000530000000000000000
#06152:16
#0555a:14000014
#05552:0000001400000000
#06058:00000014
#01554:14000014
#01558:0000001400000000
#02058:00530000
#03255:0053
#03252:00000013
#03652:00630000
#03658:00630000
#03552:0000000000630000
#03555:0000000000000063
#03558:0000000000630000
#0355b:0000000000000063
#03752:0053000000000000
#03755:00000000002300000000000000000000
#0385b:53
#03858:00230000
#04152:13
#04158:0000000000000053
#04058:0063
#0405b:00000013
#04452:0000005300000000
#04455:0000000000230000
#05052:00000016
#05352:53
#05355:0053
#0535b:0053
#05358:53
#05452:53
#05458:53
#05655:0054
#05752:14000014
#0575a:0000001400000000
#05857:0064
#0495b:53
#04955:53
#04555:0000000000000053
#04652:00000000002300000000000000000000
#0095b:13
#001380:0000000000000013
#0023b0:0023000000000000
#003350:0000000000130000
#003320:0000000000000033
#004350:0023000000000000
#004380:00130000
#0043b0:0023
#0053b0:0013333323000000
#005380:00000000005300000000000000000000
#006320:1333003323000000
#006350:00330000
#007320:0000000000000014
#008320:0024000000000000
#0073a1:0000000000000014
#0083a1:0024000000000000
#008381:00000000000000000000001300000000
#0093b1:23
#010391:00000000000000000014343424000000
#010381:0000000000000000000000000000000000000034003400000000000000000000
#017351:00001323
#017381:0000000000000013
#018381:0023000000000000
#018351:00130000
#018321:00000023
#019381:00001323
#019351:0000000000000013
#020351:0023000000000000
#020381:00130000
#0203b1:00000023
#0213b1:00130000
#021381:0000000000230000
#022321:00130000
#022351:0023
#023381:0013330000000000
#0233b1:0000002300000000
#023351:0000000013330000
#023321:00000023
#024351:00130000
#024321:00000023
#025351:0000000000000013
#026321:0023000000000000
#026381:00130000
#0263b1:00000023
#027351:0000000000000013
#028321:0023000000000000
#028381:00000000000000130000000000000000
#0283b1:00000023
#0293b1:0000000000000012
#0303b1:0022000000000000
#032351:00000000000000001333333300000000
#032321:00000023
#033351:0000000000000013
#034321:0023000000000000
#035321:0000000000130000
#035351:0000000000000033
#036321:0023000000000000
#035380:0000000000130000
#0353b0:0000000000000033
#036380:0023000000000000
#036320:00130000
#036350:0023
#036381:00130000
#0363b1:0023
#037321:0013333323000000
#037351:00000000005300000000000000000000
#0383b1:1333003323000000
#038381:00330000
#040381:00000000000000001333333300000000
#0403b1:00000023
#041381:0000000000000013
#0423b1:0023000000000000
#044321:0000001333003323
#044351:0000000000330000
#045351:0000000000000013
#046321:00000000005300000000000000000000
#046351:00000023
#048381:0013002300000000
#0493b1:13
#050381:23
#049350:13
#050320:23
#053320:13000033000000000000000000003300
#053350:00000000000033003300003300000000
#054320:33
#054350:0000002300000000
#053381:13000033000000000000000000003300
#0533b1:00000000000033003300003300000000
#054381:33
#0543b1:0000002300000000
#056351:00000000000000001434343434343434
#057321:24
#058371:00000000000000001434343434343434
#0593a1:24
